<?xml version="1.0" encoding="UTF-8" standalone="no"?>
<!-- Creator: CorelDRAW -->
<svg
   xmlns:dc="http://purl.org/dc/elements/1.1/"
   xmlns:cc="http://web.resource.org/cc/"
   xmlns:rdf="http://www.w3.org/1999/02/22-rdf-syntax-ns#"
   xmlns:svg="http://www.w3.org/2000/svg"
   xmlns="http://www.w3.org/2000/svg"
   xmlns:sodipodi="http://sodipodi.sourceforge.net/DTD/sodipodi-0.dtd"
   xmlns:inkscape="http://www.inkscape.org/namespaces/inkscape"
   xml:space="preserve"
   width="99.551mm"
   height="114.822mm"
   shape-rendering="geometricPrecision"
   text-rendering="geometricPrecision"
   image-rendering="optimizeQuality"
   fill-rule="evenodd"
   clip-rule="evenodd"
   viewBox="0 0 99.551 114.822"
   id="svg2"
   sodipodi:version="0.32"
   inkscape:version="0.44.1"
   sodipodi:docname="Viljandimaa vallad.svg"
   sodipodi:docbase="C:\Documents and Settings\kasutaja\Desktop"><metadata
   id="metadata234"><rdf:RDF><cc:Work
       rdf:about=""><dc:format>image/svg+xml</dc:format><dc:type
         rdf:resource="http://purl.org/dc/dcmitype/StillImage" /></cc:Work></rdf:RDF></metadata><sodipodi:namedview
   inkscape:window-height="712"
   inkscape:window-width="1024"
   inkscape:pageshadow="2"
   inkscape:pageopacity="0.0"
   guidetolerance="10.0"
   gridtolerance="10.0"
   objecttolerance="10.0"
   borderopacity="1.0"
   bordercolor="#666666"
   pagecolor="#ffffff"
   id="base"
   inkscape:zoom="1.2682819"
   inkscape:cx="176.36989"
   inkscape:cy="203.4248"
   inkscape:window-x="-4"
   inkscape:window-y="-4"
   inkscape:current-layer="svg2" />
 <defs
   id="defs4">
  <font
   id="FontID0"
   font-variant="normal"
   fill-rule="nonzero"
   font-style="normal"
   font-weight="700">
	<font-face
   font-family="Chianti Win95BT"
   id="font-face7">
	</font-face>
   <missing-glyph
   id="missing-glyph9"><path
     d="M0 0z"
     id="path11" /></missing-glyph>
   <glyph
   unicode="-"
   horiz-adv-x="342"
   id="glyph13"><path
     d="M36.1446 320.813l270.021 0 0 -115.663 -270.021 0 0 115.663z"
     id="path15" /></glyph>
   <glyph
   unicode=" "
   horiz-adv-x="306"
   id="glyph17" />
   <glyph
   unicode="M"
   horiz-adv-x="951"
   id="glyph19"><path
     d="M128.845 704.181l187.007 0c21.8285,-71.6749 47.1533,-147.366 75.6438,-227.026 28.6794,-79.8016 60.1937,-162.485 94.3539,-248.146 31.1363,80.1795 60.0047,159.65 86.1328,238.838 26.1753,79.1401 50.1772,157.808 72.0057,236.334l184.172 0c10.0165,-143.161 23.5294,-274.368 40.4914,-393.196 16.8675,-118.828 36.995,-222.49 60.5245,-310.985l-170.328 0c-3.02386,105.504 -8.36286,202.835 -16.017,292.322 -7.65415,89.3456 -17.6707,172.502 -30.0024,249.657 -37.6565,-97.992 -71.6749,-191.968 -101.819,-282.164 -30.0024,-90.1488 -56.3194,-176.801 -78.8566,-259.816l-105.504 0c-24.0019,88.1644 -51.8309,177.841 -83.1562,268.509 -31.5143,90.8103 -66.6667,182.991 -105.646,276.494 -9.16608,-76.1635 -17.1982,-159.981 -24.0019,-251.358 -6.85093,-91.33 -12.5207,-189.133 -17.0092,-293.645l-162.674 0c21.8285,103.189 40.6804,213.513 56.3194,330.829 15.8753,117.316 28.6794,241.814 38.3652,373.352z"
     id="path21" /></glyph>
   <glyph
   unicode="J"
   horiz-adv-x="353"
   id="glyph23"><path
     d="M95.1571 704.181l168.533 0c-3.68533,-53.6735 -6.37845,-107.867 -8.17387,-162.343 -1.70092,-54.524 -2.69313,-109.52 -2.69313,-164.848 0,-27.3092 0.330735,-64.3043 0.992204,-111.174 0.661469,-46.6336 1.03945,-79.9906 1.03945,-99.8346 0,-68.3203 -3.87432,-121.002 -11.5285,-157.808 -7.65415,-36.995 -20.3166,-68.3203 -38.318,-94.0232 -19.1826,-27.9707 -45.1689,-49.4685 -78.0061,-64.4933 -32.979,-14.9776 -70.4937,-22.49 -112.828,-22.49 -12.3317,0 -23.8601,0.330735 -34.1602,1.1812 -10.5363,0.803213 -20.3638,2.1734 -29.8606,3.63808l-19.9858 118.167c11.6702,-4.15781 22.679,-7.32341 32.6482,-9.16608 10.2055,-1.98441 19.8441,-2.97661 29.3409,-2.97661 48.5235,0 81.6915,15.639 99.3622,46.8226 17.8124,31.3253 26.6478,108.009 26.6478,230.002 0,66.8084 -1.98441,141.649 -5.81148,224.852 -4.01606,83.2979 -9.6858,171.321 -17.1982,264.493z"
     id="path25" /></glyph>
   <glyph
   unicode="K"
   horiz-adv-x="681"
   id="glyph27"><path
     d="M80.9828 704.181l172.029 0c-3.82707,-51.1694 -7.18167,-104.37 -9.49681,-159.509 -2.50413,-55.1854 -4.3468,-112.025 -5.66974,-170.659 42.6648,51.1694 80.841,104.323 114.481,159.65 33.6877,55.5162 62.5089,112.166 86.6525,170.517l192.866 0c-45.4996,-58.0203 -87.6919,-113.348 -126.53,-166.029 -38.6487,-52.8231 -77.2974,-107.158 -116.135,-163.147 15.639,-10.3473 31.467,-24.3326 47.673,-41.6726 15.9698,-17.4817 35.4831,-42.334 58.3038,-74.5098 12.0009,-17.0092 29.5299,-42.8065 52.6813,-77.6754 54.9965,-83.6286 100.307,-143.964 136.168,-181.148l-208.835 0c-38.8377,84.9988 -78.0061,156.343 -117.694,214.174 -39.8299,57.6423 -79.4708,101.347 -119.159,130.64 0.330735,-64.824 1.70092,-125.49 4.20506,-182.14 2.45689,-56.6974 6.00047,-110.843 10.489,-162.674l-172.029 0c5.19726,60.8552 9.16608,120.813 12.0009,179.683 2.83487,58.9653 4.20506,116.986 4.20506,174.297 0,53.201 -1.37019,108.528 -4.20506,166.36 -2.83487,57.8313 -6.80369,118.97 -12.0009,183.841z"
     id="path29" /></glyph>
   <glyph
   unicode="H"
   horiz-adv-x="758"
   id="glyph31"><path
     d="M80.9828 704.181l171.84 0c-3.82707,-43.3262 -6.80369,-88.0227 -8.97708,-133.995 -2.1734,-46.2084 -3.35459,-94.1649 -3.68533,-144.342l278.998 0.472478c-0.661469,53.6735 -1.84266,103.331 -3.63808,148.689 -1.84266,45.4996 -4.3468,88.4952 -7.5124,129.176l172.313 0c-5.81148,-56.6974 -10.1583,-114.198 -12.9931,-172.36 -2.83487,-58.3038 -4.15781,-117.505 -4.15781,-177.841 0,-65.9579 1.32294,-128.325 4.15781,-186.96 2.83487,-58.6818 7.18167,-114.34 12.9931,-167.021l-172.313 0c2.64588,44.9799 4.81928,93.1727 6.47295,144.484 1.84266,51.5001 3.35459,110.702 4.67753,177.368l-278.998 0c0.330735,-58.3511 1.51193,-114.198 3.68533,-167.871 2.1734,-53.4845 5.15001,-104.796 8.97708,-153.981l-171.84 0c5.19726,59.3433 9.16608,118.356 12.0009,177.321 2.83487,58.8235 4.20506,117.836 4.20506,176.66 0,53.201 -1.37019,108.67 -4.20506,166.501 -2.83487,58.0203 -6.80369,119.206 -12.0009,183.7z"
     id="path33" /></glyph>
   <glyph
   unicode="A"
   horiz-adv-x="666"
   id="glyph35"><path
     d="M331.018 585.022c-15.4973,-42.712 -31.1836,-87.6919 -46.5391,-135.176 -15.4973,-47.3423 -31.656,-98.7007 -48.6652,-154.028l180.203 0c-13.7019,50.8386 -27.4982,100.165 -41.6726,148.169 -14.1743,48.0038 -28.6794,95.0154 -43.3262,141.035zm-92.1805 121.994c12.0009,-0.661469 25.1831,-1.1812 39.3102,-1.51193 14.1743,-0.330735 35.3414,-0.519726 63.6901,-0.519726 23.6712,0 41.4836,0.188991 53.1538,0.519726 11.8592,0.330735 22.8207,0.850461 33.168,1.51193 28.6794,-109.993 62.8396,-223.529 102.339,-340.373 39.6882,-116.797 85.3296,-238.979 137.491,-366.643l-175.809 0c-6.5202,31.1836 -13.8436,62.5089 -22.1592,94.0232 -8.36286,31.3253 -17.6707,63.6428 -28.2069,96.8108l-232.837 0c-9.49681,-29.6716 -18.1432,-60.3355 -26.128,-92.1805 -8.03213,-31.9868 -15.1665,-64.824 -21.6867,-98.6534l-162.155 0c63.8318,157.146 115.474,294.165 154.973,410.678 39.6882,116.466 67.8479,215.308 84.8571,296.338z"
     id="path37" /></glyph>
   <glyph
   unicode="V"
   horiz-adv-x="631"
   id="glyph39"><path
     d="M0 704.181l185.022 0c11.812,-77.8644 29.1519,-163.997 51.9726,-258.871 23.0097,-94.6374 51.1694,-197.165 84.8571,-307.158 36.6643,112.686 66.8084,216.678 90.3378,311.836 23.2932,95.1571 39.9717,180.014 49.6575,254.193l169.005 0c-51.8309,-141.696 -96.0076,-271.013 -132.861,-388.188 -36.806,-117.316 -66.0052,-222.49 -87.8337,-315.993l-188.991 0c-29.6716,123.978 -62.8396,244.838 -99.8346,362.485 -36.995,117.836 -77.3447,231.703 -121.332,341.696z"
     id="path41" /></glyph>
   <glyph
   unicode="T"
   horiz-adv-x="574"
   id="glyph43"><path
     d="M200.189 0c5.48075,51.8309 9.63855,109.851 12.4734,174.155 2.83487,64.1625 4.15781,139.192 4.15781,224.852 0,57.9731 -0.141743,100.496 -0.472478,127.664 -0.330735,27.1675 -1.1812,51.9726 -2.50413,74.5098 -43.5152,-0.661469 -82.3529,-2.69313 -116.182,-6.18946 -33.8294,-3.30735 -64.1625,-8.31562 -90.8103,-14.8358l15.1665 124.026 531.302 0 13.7019 -124.026c-26.695,6.5202 -57.0281,11.5285 -91.1883,14.8358 -34.0184,3.49634 -72.8561,5.52799 -116.324,6.18946 -1.32294,-27.6872 -2.36239,-56.1777 -2.83487,-85.6603 -0.519726,-29.5299 -0.661469,-60.0047 -0.661469,-91.708 0,-97.6612 1.32294,-179.494 4.15781,-245.5 2.83487,-66.1469 7.18167,-125.632 12.9931,-178.313l-172.974 0z"
     id="path45" /></glyph>
   <glyph
   unicode="S"
   horiz-adv-x="515"
   id="glyph47"><path
     d="M61.9891 13.1821l-16.1588 124.97c27.6872,-12.0009 54.9965,-21.167 81.8332,-27.1675 26.8368,-6.00047 52.6813,-8.97708 77.3447,-8.97708 36.1446,0 64.824,7.32341 86.18,21.9702 21.3088,14.6941 31.9868,34.3492 31.9868,59.0125 0,31.3253 -33.0262,69.0291 -99.1732,112.828 -7.5124,5.00827 -13.1821,8.6936 -17.0092,11.3395 -63.1703,42.8538 -104.654,78.8566 -124.309,107.678 -19.7023,28.8212 -29.5299,61.8474 -29.5299,99.3149 0,61.8474 21.356,110.702 64.1625,146.704 42.8538,35.9556 101.016,53.957 174.675,53.957 22.0175,0 43.9877,-1.13395 65.8635,-3.63808 21.8285,-2.50413 43.1373,-6.18946 63.9735,-11.0087l13.1821 -125.018c-22.1592,9.49681 -44.5074,16.6785 -67.1864,21.4978 -22.679,4.86652 -45.3107,7.37066 -68.1786,7.37066 -35.1524,0 -62.1309,-6.5202 -81.3135,-19.3716 -18.9936,-12.8042 -28.4904,-31.1363 -28.4904,-54.8075 0,-15.3555 6.33121,-31.3253 18.8046,-48.0038 12.5207,-16.4895 30.6638,-32.5065 54.524,-47.8148 10.3473,-6.85093 25.3248,-16.3477 44.8382,-28.8684 47.0116,-29.4826 76.8249,-50.6497 89.8181,-63.3121 24.1909,-23.4822 41.3418,-46.1611 51.6891,-68.1786 10.1583,-21.9702 15.3083,-46.4918 15.3083,-73.4704 0,-62.8396 -23.3404,-113.536 -69.974,-152.185 -46.8698,-38.507 -108.339,-57.8313 -184.833,-57.8313 -26.8368,0 -52.5396,1.84266 -77.2029,5.66974 -24.8051,3.63808 -48.3345,9.49681 -70.8245,17.3399z"
     id="path49" /></glyph>
   <glyph
   unicode="P"
   horiz-adv-x="594"
   id="glyph51"><path
     d="M238.318 363.855c3.82707,-0.377983 8.03213,-0.708717 12.1899,-0.850461 4.15781,-0.188991 10.678,-0.188991 19.5133,-0.188991 51.5001,0 90.1488,10.3473 115.993,30.9946 25.7973,20.6945 38.8377,51.3584 38.8377,92.0387 0,37.4675 -12.1899,65.6272 -36.3336,84.8098 -24.3326,18.9936 -60.5245,28.4904 -108.67,28.4904 -7.84314,0 -20.1748,-0.661469 -37.184,-1.98441l-2.50413 0c-0.850461,-50.1772 -1.51193,-93.1727 -1.84266,-129.176 -0.330735,-35.8138 -0.330735,-70.6355 0,-104.134zm-159.131 -363.855c5.81148,55.3272 10.3,112.497 13.3239,171.651 3.1656,59.0125 4.67753,119.868 4.67753,182.329 0,56.6974 -1.51193,114.198 -4.67753,172.691 -3.02386,58.4928 -7.5124,117.647 -13.3239,177.51l132.814 0c64.0208,0 111.174,-1.1812 141.318,-3.68533 30.0024,-2.50413 55.6579,-6.66194 76.8249,-12.4734 44.035,-12.0009 78.1951,-35.0106 102.858,-69.0291 24.4744,-33.9712 36.8533,-75.6438 36.8533,-124.829 0,-75.8327 -26.8368,-133.995 -80.3685,-174.486 -53.4845,-40.4914 -130.829,-60.8552 -231.656,-60.8552l-20.978 0c0.661469,-49.4685 1.98441,-95.8186 4.15781,-139.003 2.1734,-42.9955 5.15001,-82.9672 8.97708,-119.82l-170.801 0z"
     id="path53" /></glyph>
   <glyph
   unicode="m"
   horiz-adv-x="897"
   id="glyph55"><path
     d="M501.016 442.854c42.1451,26.7895 79.8016,46.8226 112.639,60.1465 33.0262,13.3239 61.3277,19.9858 85.5185,19.9858 39.6409,0 70.6827,-13.9854 92.842,-42.0033 21.9702,-27.9707 34.6326,-69.6433 37.9872,-124.97l0 -58.1621c0,-52.0198 1.32294,-102.67 4.15781,-151.665 2.83487,-48.8542 7.18167,-97.6612 12.9931,-146.185l-151.996 0c3.02386,46.4918 5.19726,92.842 6.66194,138.672 1.51193,45.8304 2.1734,91.33 2.1734,136.168 0,48.807 -6.66194,83.6759 -19.9858,104.323 -13.3239,20.6473 -35.3414,30.9946 -65.8635,30.9946 -14.3161,0 -30.4748,-2.50413 -48.2873,-7.32341 -18.0014,-4.81928 -37.184,-12.1899 -57.6896,-22.0175 0.330735,-18.8046 0.850461,-45.9721 1.51193,-81.5025 2.1734,-143.822 6.33121,-243.657 12.1427,-299.315l-148.5 0c2.69313,48.5235 4.67753,94.0232 6.33121,136.688 1.70092,42.6648 2.50413,82.3057 2.50413,119.159 0,61.1387 -6.66194,102.15 -19.8441,122.986 -13.1349,20.8363 -36.3336,31.3253 -69.5015,31.3253 -15.9698,0 -32.3175,-2.31514 -49.3267,-6.99268 -16.8202,-4.81928 -34.1602,-11.812 -51.6419,-21.3088l0 -65.013c0,-54.0043 0.992204,-107.489 3.1656,-160.359 2.1734,-52.8231 5.15001,-104.985 8.97708,-156.485l-151.807 0c4.48854,51.1694 7.98488,98.5117 10.3,142.31 2.1734,43.846 3.35459,84.3373 3.35459,121.852 0,52.1616 -1.1812,98.6534 -3.35459,139.995 -2.31514,41.1528 -5.81148,76.3525 -10.3,105.693 18.1432,0.330735 36.4753,1.13395 54.9965,2.64588 18.3322,1.51193 36.1446,3.68533 53.3428,6.66194l24.4744 -73.3286c42.9955,26.6478 80.1795,46.1611 111.505,58.6818 31.5143,12.3317 58.8235,18.4739 82.3529,18.4739 27.64,0 51.5001,-6.80369 71.4859,-20.5056 19.9858,-13.6546 35.4831,-33.4987 46.6808,-59.6267z"
     id="path57" /></glyph>
   <glyph
   unicode="h"
   horiz-adv-x="587"
   id="glyph59"><path
     d="M55.1854 0c5.15001,71.0135 9.16608,138.814 11.812,203.355 2.50413,64.635 3.82707,127.333 3.82707,187.81 0,65.3437 -1.65367,126.671 -5.15001,183.511 -3.35459,56.9809 -8.6936,108.481 -15.828,154.311 29.6716,4.01606 56.6501,8.36286 81.3135,13.1821 24.6634,5.00827 48.0038,10.489 70.163,16.6785 -0.330735,-3.82707 -0.472478,-10.0165 -0.472478,-18.0014 -1.03945,-97.6612 -1.51193,-168.675 -1.51193,-212.993l0 -74.6988c38.9794,23.1987 74.3208,40.4914 105.835,52.1616 31.656,11.8592 59.3433,17.6707 83.0144,17.6707 39.1684,0 69.8323,-13.3239 92.3222,-39.8299 22.301,-26.506 35.6721,-65.1547 39.4992,-115.993l0 -40.0189c0,-62.1309 1.32294,-118.97 4.15781,-170.139 2.83487,-51.3584 7.18167,-103.662 12.9931,-157.004l-153.508 0c3.68533,53.3428 6.18946,102.67 7.84314,147.649 1.65367,45.1689 2.50413,87.8337 2.50413,128.183 0,49.185 -6.85093,83.6759 -20.6473,103.52 -13.8436,19.7968 -37.184,29.8134 -70.163,29.8134 -12.0009,0 -27.0258,-2.64588 -44.8382,-7.84314 -17.8597,-5.15001 -37.8455,-12.6624 -60.0047,-22.49 -0.661469,-9.6858 -1.1812,-20.1748 -1.32294,-31.1836 -0.188991,-11.1505 -0.188991,-27.9707 -0.188991,-50.8386 0,-42.334 0.850461,-87.8337 2.50413,-136.499 1.65367,-48.6652 4.15781,-101.961 7.84314,-160.312l-151.996 0z"
     id="path61" /></glyph>
   <glyph
   unicode="k"
   horiz-adv-x="543"
   id="glyph63"><path
     d="M200.85 758.847c-0.661469,-42.0033 -1.37019,-97.6612 -2.03166,-166.832 -0.661469,-69.1708 -1.32294,-169.856 -1.98441,-302.008 28.6794,30.3331 56.8391,63.5011 84.4791,99.3149 27.6872,36.0028 55.1854,75.1713 82.5419,117.505l153.13 0c-31.1363,-33.8294 -61.9891,-69.1708 -92.464,-105.977 -30.3331,-36.6643 -60.5245,-74.6988 -90.5268,-113.678 20.5056,-18.3322 54.524,-60.8552 101.819,-127.664 47.3423,-66.9974 89.0149,-120.198 125.207,-159.509l-178.172 0c-30.9946,63.1703 -62.0364,116.986 -93.3617,161.682 -31.1363,44.5074 -61.8001,79.1401 -92.1332,103.992 0.992204,-61.8474 2.31514,-114.529 3.96882,-157.855 1.51193,-43.1373 3.35459,-79.1401 5.339,-107.82l-151.476 0c5.15001,71.0135 9.16608,138.814 11.812,203.355 2.50413,64.635 3.82707,127.144 3.82707,187.81 0,67.6589 -1.65367,129.837 -4.81928,186.487 -3.35459,56.6974 -8.31562,107.158 -15.1665,151.335 29.0102,4.01606 55.6579,8.36286 80.1795,13.1821 24.3326,5.00827 47.6258,10.489 69.8323,16.6785z"
     id="path65" /></glyph>
   <glyph
   unicode="d"
   horiz-adv-x="608"
   id="glyph67"><path
     d="M410.158 380.817c-18.4739,12.8514 -37.1368,22.3482 -56.1777,28.6794 -18.8046,6.33121 -37.7983,9.49681 -57.1699,9.49681 -36.6643,0 -66.6667,-14.3161 -89.4874,-42.9955 -23.0097,-28.6794 -34.4909,-66.1469 -34.4909,-112.828 0,-54.6657 11.1505,-97.3305 33.6877,-128.183 22.49,-30.8056 53.2955,-46.1611 92.3222,-46.1611 38.8377,0 67.6589,15.828 86.8415,47.673 18.9936,31.656 28.4904,79.8488 28.4904,144.342 0,13.6546 -0.330735,29.0102 -0.992204,45.8304 -0.661469,17.0092 -1.70092,35.0106 -3.02386,54.146zm138.861 378.03c-3.35459,-68.0369 -5.66974,-136.357 -7.37066,-205.197 -1.65367,-68.6511 -2.50413,-137.822 -2.50413,-207.465 0,-77.5337 2.03166,-143.539 6.18946,-198.205 4.01606,-54.6657 10.1583,-103.992 18.6629,-147.98l-108.812 -0.992204 -26.8368 75.1713c-24.9941,-30.0024 -52.1616,-52.4923 -81.03,-67.6589 -28.9629,-15.1665 -59.8157,-22.679 -92.3222,-22.679 -64.4933,0 -117.175,24.9941 -157.808,74.9823 -40.6804,49.9882 -61.0442,115.332 -61.0442,196.031 0,79.1401 21.0253,142.641 63.1703,190.456 42.1923,47.862 97.8502,71.8639 166.832,71.8639 23.5294,0 47.0116,-3.49634 70.6827,-10.678 23.4822,-7.18167 48.1928,-18.3322 73.8483,-33.3097 -1.1812,52.4923 -3.02386,99.9764 -5.00827,142.641 -2.1734,42.6648 -4.67753,82.0222 -7.65415,118.167 25.6556,2.1734 51.1694,5.339 76.1635,9.49681 25.1358,4.01606 49.9882,9.16608 74.8405,15.3555z"
     id="path69" /></glyph>
   <glyph
   unicode="n"
   horiz-adv-x="592"
   id="glyph71"><path
     d="M540.987 0l-153.65 0c3.82707,65.1547 6.66194,118.498 8.17387,160.17 1.65367,41.6726 2.50413,80.1795 2.50413,115.663 0,48.8542 -6.85093,83.3451 -20.3638,103.331 -13.4656,19.9858 -36.0028,30.0024 -67.4699,30.0024 -16.017,0 -33.357,-2.50413 -52.0198,-7.5124 -18.6629,-5.15001 -38.6487,-12.6624 -59.8157,-22.8207l0 -52.6813c0,-67.6589 0.803213,-128.325 2.64588,-181.81 1.84266,-53.6735 4.48854,-101.677 7.98488,-144.342l-152.799 0c4.48854,51.1694 7.98488,98.5117 10.3,142.31 2.1734,43.846 3.35459,84.3373 3.35459,121.852 0,52.1616 -1.1812,98.6534 -3.35459,139.854 -2.31514,41.2946 -5.81148,76.4942 -10.3,105.835 18.1432,0.330735 36.4753,1.13395 54.9965,2.64588 18.3322,1.51193 36.1446,3.68533 53.4845,6.5202l24.3326 -73.1869c42.9955,26.317 80.5103,45.6886 112.497,57.8313 32.1758,12.1899 61.3277,18.3322 87.6919,18.3322 49.4685,0 84.8098,-16.1588 105.977,-48.6652 21.167,-32.3175 31.656,-87.6447 31.656,-166.171l0 -75.1713c0,-39.1684 1.1812,-78.0061 3.68533,-116.466 2.50413,-38.696 6.00047,-77.2029 10.489,-115.521z"
     id="path73" /></glyph>
   <glyph
   unicode="g"
   horiz-adv-x="559"
   id="glyph75"><path
     d="M268.179 434.16c-26.3643,0 -47.862,-8.31562 -64.1625,-24.8051 -16.5367,-16.6785 -24.6634,-38.0345 -24.6634,-64.0208 0,-27.3565 7.98488,-49.5157 24.1436,-66.1469 16.1588,-16.8675 37.3258,-25.1831 63.6901,-25.1831 26.6478,0 48.3345,8.31562 64.9657,24.8524 16.5367,16.6312 24.8524,38.4597 24.8524,65.4855 0,26.9785 -8.17387,48.6652 -24.3326,65.1547 -16.3477,16.4895 -37.8455,24.6634 -64.4933,24.6634zm-85.8493 -435.152c-14.5051,-11.0087 -24.8524,-22.0175 -31.3253,-33.0262 -6.5202,-10.8197 -9.82755,-22.1592 -9.82755,-33.8294 0,-24.8051 12.1427,-45.1689 36.3336,-60.9969 24.3326,-15.9698 55.7997,-24.0019 94.4956,-24.0019 38.1762,0 68.9818,7.32341 92.653,22.1592 23.5294,14.8358 35.3414,33.6877 35.3414,56.5084 0,26.3643 -36.3336,44.6964 -108.812,55.1854 -44.3657,6.14222 -80.6993,12.1427 -108.859,18.0014zm215.686 491.33c31.656,0 61.1387,0.661469 88.6369,1.98441 27.4982,1.32294 52.6813,3.1656 75.502,5.85873l-12.3317 -82.0222 -2.31514 0c-22.1592,-1.32294 -38.318,-1.98441 -48.3345,-1.98441 -4.3468,0 -10.3473,0.141743 -18.1904,0.472478 -7.79589,0.330735 -13.4656,0.519726 -16.962,0.519726 5.81148,-12.3317 10.1583,-24.6634 12.8042,-36.6643 2.83487,-12.0009 4.15781,-23.8129 4.15781,-35.6721 0,-50.9804 -18.6629,-92.3222 -56.1304,-123.648 -37.373,-31.5143 -87.0305,-47.2006 -148.831,-47.2006 -12.3317,0 -25.3721,0.850461 -39.0267,2.50413 -13.6546,1.51193 -27.64,3.68533 -42.0033,6.33121 -5.66974,-5.81148 -9.82755,-11.6702 -12.6624,-17.3399 -2.83487,-5.81148 -4.15781,-11.1505 -4.15781,-16.3005 0,-15.0248 6.85093,-26.1753 20.3166,-33.4987 13.5129,-7.32341 42.8538,-13.8436 88.1644,-19.3244 9.49681,-1.37019 22.3482,-2.83487 38.696,-4.3468 76.8249,-8.50461 127.664,-22.49 152.799,-42.0033 15.6863,-12.1899 27.3565,-26.8368 35.1996,-43.9877 7.79589,-17.3399 11.6702,-36.995 11.6702,-59.2015 0,-54.6657 -23.6712,-98.4644 -71.0135,-131.302 -47.4841,-32.8372 -110.985,-49.3267 -190.834,-49.3267 -73.5176,0 -132.152,13.4656 -175.667,40.3024 -43.657,26.8368 -65.4855,62.3671 -65.4855,106.686 0,20.1748 6.80369,38.9794 20.3166,56.3194 13.5129,17.5289 35.3414,35.6721 65.6745,54.524 -15.0248,6.80369 -26.3643,15.828 -33.8294,26.6478 -7.5124,10.8197 -11.1977,23.6712 -11.1977,38.318 0,18.1904 6.66194,36.3336 19.8441,54.1932 13.1821,18.0014 33.4987,36.4753 61.3277,55.6579 -29.6716,13.3239 -52.4923,32.8372 -68.3203,58.1621 -16.017,25.3248 -24.0019,55.1854 -24.0019,89.3456 0,54.0043 19.1826,97.3305 57.6896,129.837 38.318,32.5065 89.9598,48.807 154.642,48.807 26.506,0 50.6497,-2.64588 72.6671,-7.98488 21.8285,-5.339 42.334,-13.6546 61.1859,-24.6634z"
     id="path77" /></glyph>
   <glyph
   unicode="o"
   horiz-adv-x="592"
   id="glyph79"><path
     d="M295.819 419.986c-40.3024,0 -71.1552,-14.1743 -92.3222,-42.4758 -21.167,-28.3487 -31.656,-69.5015 -31.656,-123.506 0,-54.1932 10.489,-95.3461 31.656,-123.648 21.167,-28.3487 52.0198,-42.523 92.3222,-42.523 41.0111,0 72.1947,14.1743 93.3617,42.334 21.167,28.1597 31.656,69.3125 31.656,123.837 0,54.6657 -10.489,96.0076 -31.5143,123.978 -20.978,28.018 -52.1616,42.0033 -93.5034,42.0033zm0.188991 103c78.6676,0 141.838,-24.4744 189.18,-73.4704 47.2951,-48.996 70.9662,-114.529 70.9662,-196.504 0,-82.1639 -23.6712,-147.508 -70.8245,-196.173 -47.1533,-48.6652 -110.324,-72.9979 -189.322,-72.9979 -78.8566,0 -141.838,24.4744 -188.991,73.3286 -47.2006,48.807 -70.8717,114.009 -70.8717,195.842 0,81.975 23.6712,147.508 71.0135,196.504 47.3423,48.996 110.324,73.4704 188.85,73.4704z"
     id="path81" /></glyph>
   <glyph
   unicode="e"
   horiz-adv-x="556"
   id="glyph83"><path
     d="M387.149 309.19l0 5.81148c0,37.8455 -8.83534,67.1864 -26.317,87.9754 -17.6707,20.8363 -42.1451,31.1836 -73.6593,31.1836 -33.6877,0 -60.1937,-11.0087 -79.8488,-32.979 -19.6551,-22.0175 -30.4748,-52.6813 -32.5065,-91.9915l212.332 0zm123.506 -78.1951l-336.31 0c0.330735,-45.8304 13.6546,-80.9828 39.8299,-104.985 26.1753,-24.1909 64.1625,-36.1918 114.009,-36.1918 22.1592,0 45.6414,3.02386 70.8245,8.83534 24.9941,5.85873 51.6419,14.6941 79.9906,26.3643l-6.85093 -99.1732c-28.6322,-13.3239 -57.6423,-23.3404 -87.125,-30.0024 -29.5299,-6.66194 -59.2015,-10.0165 -89.2039,-10.0165 -79.3291,0 -141.507,23.1514 -186.487,69.3598 -44.8382,46.1611 -67.3281,110.135 -67.3281,191.968 0,84.0066 22.3482,150.862 66.8084,200.85 44.6964,49.9882 104.37,74.9823 179.211,74.9823 70.6355,0 125.632,-22.8207 165.131,-68.3203 39.3574,-45.6886 59.0125,-109.662 59.0125,-192.346 0,-8.50461 0,-14.8358 -0.188991,-19.1354 -0.141743,-4.20506 -0.661469,-8.36286 -1.32294,-12.1899z"
     id="path85" /></glyph>
   <glyph
   unicode="i"
   horiz-adv-x="274"
   id="glyph87"><path
     d="M210.017 521.002c-3.02386,-33.168 -5.19726,-70.352 -6.66194,-111.316 -1.51193,-41.0111 -2.1734,-85.7075 -2.1734,-133.853 0,-45.4996 0.661469,-91.1883 2.1734,-136.688 1.46468,-45.4996 3.63808,-90.8103 6.66194,-135.648l-150.012 -0.519726c4.15781,43.846 7.5124,87.503 9.82755,130.876 2.1734,43.3262 3.35459,85.6603 3.35459,127.333 0,50.7914 -1.51193,96.669 -4.3468,137.491 -3.02386,40.8221 -7.32341,77.8172 -12.8514,111.174 23.5294,0.330735 47.862,1.32294 73.3286,3.1656 25.5138,1.65367 52.3506,4.48854 80.6993,7.98488zm-63.0286 228.018c22.679,0 40.4914,-6.18946 53.201,-18.5211 12.6624,-12.5207 18.9936,-29.8134 18.9936,-52.3506 0,-24.0019 -9.02433,-44.9799 -26.8368,-62.6506 -17.8597,-17.8124 -39.3574,-26.6478 -64.4933,-26.6478 -19.5133,0 -35.5304,7.13442 -48.0038,21.4978 -12.5207,14.3161 -18.8519,32.5065 -18.8519,54.6657 0,24.1436 8.17387,44.1767 24.3326,60.0047 16.3477,15.9698 36.8533,24.0019 61.6584,24.0019z"
     id="path89" /></glyph>
   <glyph
   unicode="l"
   horiz-adv-x="274"
   id="glyph91"><path
     d="M209.828 758.847c-3.49634,-54.9965 -6.14222,-115.332 -7.98488,-181.195 -1.84266,-65.8162 -2.69313,-134.987 -2.69313,-207.465 0,-59.0125 0.850461,-119.206 2.69313,-180.534 1.84266,-61.3277 4.48854,-124.498 7.98488,-189.653l-149.823 0c4.15781,58.3511 7.5124,118.167 9.82755,179.683 2.1734,61.4694 3.35459,124.64 3.35459,189.464 0,81.3607 -1.70092,152.516 -4.86652,213.182 -3.30735,60.6662 -7.98488,109.52 -14.1743,146.185 26.695,3.30735 53.012,7.46515 78.9983,12.4734 26.0335,5.00827 51.6891,11.0087 76.6832,17.8597z"
     id="path93" /></glyph>
   <glyph
   unicode="a"
   horiz-adv-x="556"
   id="glyph95"><path
     d="M351.004 122.986c-1.1812,12.0009 -2.1734,27.4982 -2.83487,46.1611 -0.661469,18.6629 -0.992204,42.1923 -0.992204,70.541 -58.3511,-0.377983 -102.528,-8.83534 -132.341,-25.3721 -30.0024,-16.6312 -44.9799,-40.6331 -44.9799,-72.3364 0,-17.8124 5.81148,-31.9868 17.2927,-42.334 11.5285,-10.489 27.4982,-15.639 47.673,-15.639 20.1748,0 40.0189,3.30735 59.3433,9.82755 19.3244,6.5202 38.318,16.1588 56.8391,29.1519zm7.84314 -62.9813c-33.8294,-24.9941 -65.6745,-43.3262 -95.6768,-54.8547 -30.0024,-11.4812 -60.3355,-17.3399 -91.33,-17.3399 -43.9877,0 -78.0061,11.8592 -102.339,35.6721 -24.1909,23.6712 -36.3336,57.1699 -36.3336,100.496 0,58.6818 26.1753,103.709 78.3369,135.034 52.3506,31.3253 129.979,48.6652 233.168,51.9726l0.472478 13.1821c0,30.8528 -9.49681,54.146 -28.4904,70.0213 -18.9936,15.828 -47.3423,23.6239 -84.8098,23.6239 -24.6634,0 -49.6575,-3.1656 -75.1713,-9.49681 -25.3248,-6.33121 -50.6969,-15.828 -75.691,-28.4904l3.82707 99.0314c28.3487,12.8042 58.3511,22.49 89.6764,29.1519 31.5143,6.66194 62.8396,9.96929 94.4956,9.96929 29.6716,0 55.8469,-3.49634 78.6676,-10.489 22.679,-6.99268 42.8538,-17.8124 60.5245,-32.5065 22.49,-18.8046 38.318,-42.6648 47.8148,-71.4859 9.49681,-28.8212 14.1743,-73.6593 14.1743,-134.515l0 -46.8226c0,-68.9818 4.3468,-112.166 13.1821,-129.506 8.83534,-17.151 25.4666,-25.7973 49.7992,-25.7973l8.83534 0 -1.98441 -59.0125c-15.3083,-5.339 -30.6638,-9.16608 -46.3501,-11.8592 -15.639,-2.50413 -31.7978,-3.82707 -48.807,-3.82707 -22.8207,0 -41.4836,5.66974 -55.9887,17.0092 -14.3633,11.4812 -24.5216,28.3487 -30.0024,50.8386z"
     id="path97" /></glyph>
   <glyph
   unicode="j"
   horiz-adv-x="291"
   id="glyph99"><path
     d="M151.996 749.02c23.0097,0 41.0111,-6.33121 53.8153,-18.8519 12.8514,-12.5207 19.3716,-29.8134 19.3716,-52.0198 0,-24.0019 -9.02433,-44.9799 -26.8368,-62.6506 -18.0014,-17.8124 -39.3574,-26.6478 -64.4933,-26.6478 -19.5133,0 -35.6721,7.13442 -48.5235,21.6395 -12.8514,14.5051 -19.3244,32.6955 -19.3244,54.524 0,24.1436 8.17387,44.1767 24.3326,60.0047 16.3477,15.9698 36.806,24.0019 61.6584,24.0019zm62.8396 -231.042c-2.31514,-40.3024 -4.01606,-78.9983 -5.15001,-115.993 -1.1812,-36.806 -1.70092,-73.3286 -1.70092,-109.142 0,-32.8372 0.188991,-70.352 0.519726,-112.686 0.330735,-42.334 0.472478,-67.9896 0.472478,-77.1557 0,-103.851 -17.151,-183.18 -51.3111,-237.845 -34.1602,-54.6657 -83.8176,-81.975 -148.831,-81.975 -5.66974,0 -11.812,0.330735 -18.8519,0.992204 -6.99268,0.661469 -15.9698,1.98441 -27.1675,3.82707l-18.9936 108.812c9.49681,-1.46468 17.5289,-2.78762 24.5216,-3.63808 6.80369,-0.850461 12.9931,-1.1812 18.4739,-1.1812 35.8611,0 60.9969,17.3399 75.502,52.0198 14.5051,34.6326 21.6867,98.6534 21.6867,192.157 0,77.8172 -1.84266,148.5 -5.339,212.143 -3.68533,63.6901 -8.83534,116.513 -15.6863,158.516l12.1899 0c18.0014,0 37.6565,0.661469 59.1543,2.36239 21.4978,1.65367 48.3345,4.63029 80.5103,8.78809z"
     id="path101" /></glyph>
   <glyph
   unicode="b"
   horiz-adv-x="611"
   id="glyph103"><path
     d="M200.189 370.187c-1.84266,-26.0335 -3.35459,-47.2006 -4.20506,-63.1703 -0.803213,-16.206 -1.13395,-29.8606 -1.13395,-40.8694 0,-59.9575 9.49681,-104.796 28.4904,-134.656 19.1826,-29.8134 47.673,-44.6492 85.8493,-44.6492 40.3024,0 71.8167,15.4973 94.6374,46.6808 22.8207,31.1363 34.1602,74.3208 34.1602,129.648 0,48.807 -10.3,86.5107 -30.8056,112.686 -20.5056,26.128 -49.8464,39.3102 -88.3534,39.3102 -18.8519,0 -37.9872,-3.68533 -57.3116,-11.0087 -19.3716,-7.32341 -39.8299,-18.6629 -61.3277,-33.9712zm2.97661 388.661c-1.98441,-61.1859 -3.49634,-117.364 -4.67753,-168.533 -1.13395,-50.9804 -1.65367,-96.669 -1.65367,-137.16 29.3409,24.1909 57.8313,41.8616 85.8493,53.012 27.9707,11.1505 57.1699,16.8202 87.503,16.8202 60.1465,0 109.142,-23.3404 147.13,-70.163 37.8455,-46.6336 56.8391,-107.678 56.8391,-182.802 0,-84.3373 -21.4978,-153.366 -64.4933,-206.851 -42.8065,-53.4845 -97.4722,-80.3213 -163.477,-80.3213 -31.845,0 -61.7056,6.80369 -89.2039,20.5056 -27.4982,13.6546 -53.2955,34.4909 -77.8172,62.4616l-33.168 -73.6593 -91.8498 16.4895c5.19726,34.5382 9.16608,76.3525 11.8592,125.537 2.50413,49.1377 3.82707,106.827 3.82707,172.974 0,97.6612 -1.65367,181.006 -5.15001,249.988 -3.35459,69.0291 -8.6936,126.341 -15.828,171.84 25.3248,2.69313 50.9804,6.5202 76.9667,11.5285 25.8446,5.00827 51.6891,11.1505 77.3447,18.3322z"
     id="path105" /></glyph>
   <glyph
   unicode="r"
   horiz-adv-x="373"
   id="glyph107"><path
     d="M185.164 401.843c22.49,37.8455 45.6886,66.1469 69.8323,84.9988 24.0019,18.8046 48.8542,28.3487 74.1791,28.3487 6.80369,0 14.6468,-1.03945 23.1514,-3.02386 8.6936,-1.84266 17.5289,-4.67753 26.695,-8.17387l-21.0253 -126.01c-9.16608,6.18946 -18.1432,10.678 -27.3092,13.7019 -9.16608,2.83487 -18.1904,4.29955 -27.3565,4.29955 -34.1602,0 -60.1465,-14.3161 -78.1479,-43.1373 -17.8597,-28.8684 -26.8368,-70.8245 -26.8368,-125.868 0,-25.9863 0.803213,-58.4928 2.64588,-97.6612 1.84266,-38.9794 4.48854,-82.1639 7.98488,-129.317l-152.799 0c4.48854,51.1694 7.98488,98.5117 10.3,142.31 2.1734,43.846 3.35459,84.3373 3.35459,121.852 0,52.1616 -1.1812,98.6534 -3.35459,139.854 -2.31514,41.2946 -5.81148,76.4942 -10.3,105.835l10.678 0c13.4656,0 27.3092,0.661469 41.8143,2.12615 14.5051,1.51193 30.6638,3.87432 48.6652,7.03992l27.829 -117.175z"
     id="path109" /></glyph>
   <glyph
   unicode="u"
   horiz-adv-x="589"
   id="glyph111"><path
     d="M426.175 0l-23.8601 60.9969c-42.334,-24.9941 -80.463,-43.846 -114.481,-56.3194 -34.0184,-12.5207 -63.8318,-18.8519 -89.1566,-18.8519 -44.1767,0 -77.5337,14.3633 -99.8346,42.9955 -22.3482,28.6794 -34.3492,72.8561 -36.3336,132.341 -0.330735,6.85093 -0.661469,14.6941 -0.850461,23.4822 -0.141743,8.6936 -0.141743,22.679 -0.141743,41.5308l0 31.656c0,54.335 -1.1812,99.8346 -3.35459,136.499 -2.31514,36.6643 -5.81148,71.8167 -10.3473,105.646l14.6941 1.51193c59.485,6.18946 104.323,11.1977 134.656,14.6941 -2.31514,-57.0281 -4.01606,-108.009 -5.15001,-153.036 -1.1812,-45.1689 -1.70092,-87.8337 -1.70092,-128.136 0,-50.5079 7.03992,-85.6603 21.0253,-105.363 13.9854,-19.6551 38.1762,-29.4826 72.3364,-29.4826 14.9776,0 31.9868,2.64588 51.1694,7.98488 19.3244,5.52799 38.8377,12.9931 58.6345,22.8679l0 47.2951c0,77.8644 -1.32294,144.011 -4.15781,199.008 -2.83487,54.8547 -6.80369,95.6768 -12.0009,122.655 40.3496,4.3468 70.6827,7.5124 90.8575,9.54406 20.1748,2.12615 38.9794,4.29955 56.1777,6.66194 -2.03166,-48.8542 -3.35459,-92.842 -4.3468,-131.869 -0.992204,-39.1684 -1.51193,-73.9901 -1.51193,-104.465 0,-50.8386 1.84266,-99.5039 5.339,-145.996 3.68533,-46.6808 9.16608,-91.1883 16.6785,-133.853l-114.34 0z"
     id="path113" /></glyph>
   <glyph
   unicode="p"
   horiz-adv-x="610"
   id="glyph115"><path
     d="M200.189 370.187c-1.84266,-26.506 -3.35459,-47.5313 -4.20506,-63.3593 -0.803213,-15.828 -1.13395,-29.0102 -1.13395,-39.8299 0,-59.1543 9.63855,-103.992 28.8212,-134.515 19.1826,-30.4748 47.3423,-45.6414 84.4791,-45.6414 39.6882,0 71.0135,15.828 93.8342,47.3423 22.8679,31.656 34.1602,74.9823 34.1602,129.979 0,48.1928 -10.3,85.5185 -30.9946,112.025 -20.6473,26.4588 -49.7992,39.8299 -87.1722,39.8299 -18.3322,0 -36.995,-3.68533 -56.1304,-11.1977 -19.3244,-7.46515 -39.8299,-19.1354 -61.6584,-34.6326zm-5.85873 -320.529c0.330735,-41.3418 1.65367,-84.4791 4.15781,-129.506 2.50413,-45.1689 6.00047,-92.464 10.489,-142.31l-152.799 0c4.48854,62.8396 7.98488,133.144 10.3,211.009 2.1734,77.8172 3.35459,159.461 3.35459,244.98 0,69.1708 -0.992204,125.159 -3.1656,168.344 -2.1734,43.1373 -5.66974,78.9983 -10.489,107.678 18.1432,0.330735 36.4753,1.13395 54.9965,2.64588 18.3322,1.51193 36.1446,3.68533 53.3428,6.66194l23.4822 -72.3364c32.8372,26.695 63.8318,46.0194 92.842,58.1621 29.0102,12.0009 58.3038,18.0014 88.3062,18.0014 59.3433,0 107.867,-23.4822 145.854,-70.3047 37.8455,-46.8698 56.8391,-107.867 56.8391,-182.66 0,-84.3373 -21.356,-153.366 -64.0208,-206.851 -42.6648,-53.4845 -96.8108,-80.3213 -162.674,-80.3213 -27.9707,0 -54.335,5.48075 -79.3291,16.6312 -24.8051,11.0087 -48.6652,27.8762 -71.4859,50.1772z"
     id="path117" /></glyph>
   <glyph
   unicode="v"
   horiz-adv-x="519"
   id="glyph119"><path
     d="M140.184 519.017c14.9776,-66.3359 32.4592,-130.829 52.4923,-193.196 19.9858,-62.3199 42.334,-122.466 67.1391,-180.817 28.3487,59.1543 51.3584,118.309 69.0291,177.179 17.8124,58.9653 30.1441,117.505 37.3258,175.809l147.98 21.0253c-18.4739,-74.5098 -44.6492,-155.02 -78.3369,-241.531 -33.6404,-86.3218 -75.6438,-179.825 -125.821,-280.463l-120.009 0c-29.2936,89.8181 -61.1387,176.471 -95.2988,259.957 -34.2074,83.5341 -70.8717,163.855 -109.851,241.011l155.351 21.0253z"
     id="path121" /></glyph>
   <glyph
   unicode="t"
   horiz-adv-x="384"
   id="glyph123"><path
     d="M101.016 512.166l34.1602 128.845c19.3244,2.31514 37.3258,5.48075 54.4767,9.30782 17.0092,4.01606 33.8294,8.83534 50.5079,14.6941 -2.31514,-19.5133 -4.3468,-41.3418 -6.33121,-65.6745 -1.98441,-24.1909 -4.15781,-54.9965 -6.85093,-92.5112l129.837 0 -22.9624 -91.8498 -108.859 0c-1.84266,-50.4607 -3.1656,-86.7942 -3.82707,-109.331 -0.661469,-22.49 -0.992204,-39.9717 -0.992204,-52.8231 0,-65.3437 7.18167,-109.001 21.4978,-130.971 14.3161,-22.0175 40.6804,-33.0262 78.9983,-33.0262 6.85093,0 13.9854,0.330735 21.3088,1.1812 7.37066,0.803213 15.1665,2.1734 23.6712,3.63808l-20.5056 -93.1254c-15.9698,-3.35459 -31.1363,-5.66974 -45.6414,-7.18167 -14.5051,-1.51193 -28.4904,-2.1734 -41.8143,-2.1734 -59.2015,0 -102.197,16.1588 -128.845,48.3345 -26.695,32.1758 -40.0189,84.3373 -40.0189,156.343 0,19.8441 1.51193,83.6759 4.3468,191.826l0.472478 27.3092 -85.802 0 5.339 61.0442 87.8337 36.1446z"
     id="path125" /></glyph>
   <glyph
   unicode="s"
   horiz-adv-x="419"
   id="glyph127"><path
     d="M351.004 507.82l9.82755 -92.842c-18.5211,5.85873 -35.8138,10.2055 -51.6419,13.0404 -16.017,2.83487 -31.0418,4.15781 -45.0272,4.15781 -27.64,0 -49.5157,-4.81928 -65.3437,-14.3633 -15.9698,-9.63855 -24.0019,-22.6317 -24.0019,-38.9794 0,-20.8363 25.1831,-46.0194 75.691,-75.6438 7.84314,-4.53579 13.6546,-8.03213 17.4817,-10.3473 44.6964,-26.3643 73.6593,-48.996 87.0305,-67.8479 13.3239,-18.8046 19.9858,-42.0033 19.9858,-69.3125 0,-49.5157 -19.5133,-89.2039 -58.3511,-119.348 -38.8377,-30.1441 -90.8103,-45.1689 -155.493,-45.1689 -16.6785,0 -33.4987,0.992204 -50.8386,3.1656 -17.151,2.1734 -35.0106,5.339 -53.1538,9.49681l-22.0175 102.008c20.1748,-6.5202 40.0189,-11.4812 59.5322,-14.8358 19.6551,-3.49634 38.318,-5.15001 56.1304,-5.15001 27.0258,0 48.996,4.96102 66.0052,15.1665 16.8675,9.96929 25.3248,22.8207 25.3248,37.9872 0,20.1748 -21.8285,43.9877 -65.2965,71.3442 -6.5202,4.29955 -11.5285,7.46515 -14.6941,9.82755 -48.1455,30.1441 -79.1401,54.9965 -92.842,74.5098 -13.6546,19.3244 -20.4583,42.334 -20.4583,68.9818 0,46.6808 18.9936,84.8571 57.1226,114.67 38.0345,29.8134 87.3612,44.6492 147.838,44.6492 14.0326,0 29.1991,-1.13395 45.1689,-3.63808 16.206,-2.50413 33.4987,-6.33121 52.0198,-11.5285z"
     id="path129" /></glyph>
   <glyph
   unicode="ä"
   horiz-adv-x="556"
   id="glyph131"><path
     d="M351.004 122.986c-1.1812,12.0009 -2.1734,27.4982 -2.83487,46.1611 -0.661469,18.6629 -0.992204,42.1923 -0.992204,70.541 -58.3511,-0.377983 -102.528,-8.83534 -132.341,-25.3721 -30.0024,-16.6312 -44.9799,-40.6331 -44.9799,-72.3364 0,-17.8124 5.81148,-31.9868 17.2927,-42.334 11.5285,-10.489 27.4982,-15.639 47.673,-15.639 20.1748,0 40.0189,3.30735 59.3433,9.82755 19.3244,6.5202 38.318,16.1588 56.8391,29.1519zm7.84314 -62.9813c-33.8294,-24.9941 -65.6745,-43.3262 -95.6768,-54.8547 -30.0024,-11.4812 -60.3355,-17.3399 -91.33,-17.3399 -43.9877,0 -78.0061,11.8592 -102.339,35.6721 -24.1909,23.6712 -36.3336,57.1699 -36.3336,100.496 0,58.6818 26.1753,103.709 78.3369,135.034 52.3506,31.3253 129.979,48.6652 233.168,51.9726l0.472478 13.1821c0,30.8528 -9.49681,54.146 -28.4904,70.0213 -18.9936,15.828 -47.3423,23.6239 -84.8098,23.6239 -24.6634,0 -49.6575,-3.1656 -75.1713,-9.49681 -25.3248,-6.33121 -50.6969,-15.828 -75.691,-28.4904l3.82707 99.0314c28.3487,12.8042 58.3511,22.49 89.6764,29.1519 31.5143,6.66194 62.8396,9.96929 94.4956,9.96929 29.6716,0 55.8469,-3.49634 78.6676,-10.489 22.679,-6.99268 42.8538,-17.8124 60.5245,-32.5065 22.49,-18.8046 38.318,-42.6648 47.8148,-71.4859 9.49681,-28.8212 14.1743,-73.6593 14.1743,-134.515l0 -46.8226c0,-68.9818 4.3468,-112.166 13.1821,-129.506 8.83534,-17.151 25.4666,-25.7973 49.7992,-25.7973l8.83534 0 -1.98441 -59.0125c-15.3083,-5.339 -30.6638,-9.16608 -46.3501,-11.8592 -15.639,-2.50413 -31.7978,-3.82707 -48.807,-3.82707 -22.8207,0 -41.4836,5.66974 -55.9887,17.0092 -14.3633,11.4812 -24.5216,28.3487 -30.0024,50.8386zm11.6702 664.163c17.8124,0 32.6482,-6.00047 44.4602,-17.8124 11.6702,-11.8592 17.5289,-26.695 17.5289,-44.1767 0,-18.1904 -5.85873,-33.168 -17.3399,-44.6964 -11.4812,-11.4812 -26.506,-17.2927 -44.6492,-17.2927 -17.8597,0 -32.6955,5.81148 -44.5074,17.2927 -11.6702,11.5285 -17.5289,26.506 -17.5289,44.6964 0,18.1432 5.85873,33.168 17.3399,44.6492 11.5285,11.5285 26.506,17.3399 44.6964,17.3399zm-185.495 0c17.4817,0 32.3175,-6.00047 44.1295,-17.8124 11.8592,-11.8592 17.8597,-26.695 17.8597,-44.1767 0,-18.1904 -5.85873,-33.168 -17.5289,-44.6964 -11.812,-11.4812 -26.6478,-17.2927 -44.4602,-17.2927 -18.1904,0 -33.168,5.81148 -44.6964,17.2927 -11.4812,11.5285 -17.3399,26.506 -17.3399,44.6964 0,17.8124 5.85873,32.6482 17.3399,44.5074 11.5285,11.6702 26.506,17.4817 44.6964,17.4817z"
     id="path133" /></glyph>
   <glyph
   unicode="ü"
   horiz-adv-x="589"
   id="glyph135"><path
     d="M426.175 0l-23.8601 60.9969c-42.334,-24.9941 -80.463,-43.846 -114.481,-56.3194 -34.0184,-12.5207 -63.8318,-18.8519 -89.1566,-18.8519 -44.1767,0 -77.5337,14.3633 -99.8346,42.9955 -22.3482,28.6794 -34.3492,72.8561 -36.3336,132.341 -0.330735,6.85093 -0.661469,14.6941 -0.850461,23.4822 -0.141743,8.6936 -0.141743,22.679 -0.141743,41.5308l0 31.656c0,54.335 -1.1812,99.8346 -3.35459,136.499 -2.31514,36.6643 -5.81148,71.8167 -10.3473,105.646l14.6941 1.51193c59.485,6.18946 104.323,11.1977 134.656,14.6941 -2.31514,-57.0281 -4.01606,-108.009 -5.15001,-153.036 -1.1812,-45.1689 -1.70092,-87.8337 -1.70092,-128.136 0,-50.5079 7.03992,-85.6603 21.0253,-105.363 13.9854,-19.6551 38.1762,-29.4826 72.3364,-29.4826 14.9776,0 31.9868,2.64588 51.1694,7.98488 19.3244,5.52799 38.8377,12.9931 58.6345,22.8679l0 47.2951c0,77.8644 -1.32294,144.011 -4.15781,199.008 -2.83487,54.8547 -6.80369,95.6768 -12.0009,122.655 40.3496,4.3468 70.6827,7.5124 90.8575,9.54406 20.1748,2.12615 38.9794,4.29955 56.1777,6.66194 -2.03166,-48.8542 -3.35459,-92.842 -4.3468,-131.869 -0.992204,-39.1684 -1.51193,-73.9901 -1.51193,-104.465 0,-50.8386 1.84266,-99.5039 5.339,-145.996 3.68533,-46.6808 9.16608,-91.1883 16.6785,-133.853l-114.34 0zm-39.0267 724.167c17.8597,0 32.6955,-6.00047 44.5074,-17.8124 11.6702,-11.8592 17.5289,-26.695 17.5289,-44.1767 0,-18.1904 -5.85873,-33.168 -17.3399,-44.6964 -11.5285,-11.4812 -26.506,-17.2927 -44.6964,-17.2927 -17.8124,0 -32.6482,5.81148 -44.4602,17.2927 -11.6702,11.5285 -17.5289,26.506 -17.5289,44.6964 0,18.1432 5.85873,33.168 17.3399,44.6492 11.4812,11.5285 26.506,17.3399 44.6492,17.3399zm-185.495 0c17.5289,0 32.3648,-6.00047 44.1767,-17.8124 11.8592,-11.8592 17.8597,-26.695 17.8597,-44.1767 0,-18.1904 -5.85873,-33.168 -17.5289,-44.6964 -11.812,-11.4812 -26.6478,-17.2927 -44.5074,-17.2927 -18.1432,0 -33.168,5.81148 -44.6492,17.2927 -11.4812,11.5285 -17.3399,26.506 -17.3399,44.6964 0,17.8124 5.85873,32.6482 17.3399,44.5074 11.4812,11.6702 26.506,17.4817 44.6492,17.4817z"
     id="path137" /></glyph>
   <glyph
   unicode="õ"
   horiz-adv-x="592"
   id="glyph139"><path
     d="M295.819 419.986c-40.3024,0 -71.1552,-14.1743 -92.3222,-42.4758 -21.167,-28.3487 -31.656,-69.5015 -31.656,-123.506 0,-54.1932 10.489,-95.3461 31.656,-123.648 21.167,-28.3487 52.0198,-42.523 92.3222,-42.523 41.0111,0 72.1947,14.1743 93.3617,42.334 21.167,28.1597 31.656,69.3125 31.656,123.837 0,54.6657 -10.489,96.0076 -31.5143,123.978 -20.978,28.018 -52.1616,42.0033 -93.5034,42.0033zm0.188991 103c78.6676,0 141.838,-24.4744 189.18,-73.4704 47.2951,-48.996 70.9662,-114.529 70.9662,-196.504 0,-82.1639 -23.6712,-147.508 -70.8245,-196.173 -47.1533,-48.6652 -110.324,-72.9979 -189.322,-72.9979 -78.8566,0 -141.838,24.4744 -188.991,73.3286 -47.2006,48.807 -70.8717,114.009 -70.8717,195.842 0,81.975 23.6712,147.508 71.0135,196.504 47.3423,48.996 110.324,73.4704 188.85,73.4704zm121.002 187.007l44.9799 -21.9702c-9.16608,-28.3487 -22.301,-49.8464 -39.4992,-64.3515 -17.3399,-14.5051 -38.1762,-21.6867 -62.5089,-21.6867 -15.9698,0 -37.7983,4.3468 -65.2965,12.9931 -27.4982,8.6936 -47.0116,13.0404 -58.8708,13.0404 -14.3161,0 -26.128,-2.83487 -35.8138,-8.36286 -9.6858,-5.48075 -17.6707,-13.9854 -24.1436,-25.4666l-43.0428 23.9546c7.84314,26.695 20.5056,47.3423 38.1762,62.0364 17.5289,14.6468 38.507,21.9702 63.0286,21.9702 14.5051,0 35.4831,-4.48854 62.9813,-13.6546 27.3565,-9.16608 47.3423,-13.6546 60.0047,-13.6546 13.6546,0 25.3248,2.97661 35.1524,8.83534 9.82755,5.81148 18.0014,14.6468 24.8524,26.317z"
     id="path141" /></glyph>
  </font>
</defs>
</svg>
