<svg xmlns="http://www.w3.org/2000/svg">
<defs>
<font
   id="FontID0"
   font-variant="normal"
   class="str2"
   style="fill-rule:nonzero"
   font-style="normal"
   font-weight="400">
	<font-face
   font-family="微軟正黑體"
   id="font-face7">
	</font-face>
   <missing-glyph
   id="missing-glyph9"><path
     d="M0 0z"
     id="path11" /></missing-glyph>
   <glyph
   unicode="芳"
   horiz-adv-x="1000"
   id="glyph13"><path
     d="M934.993 672.84l-234.847 0 0 -101.998 -52.1567 0 0 101.998 -125.998 0 0 48.3299 125.998 0 0 107.998 52.1567 0 0 -107.998 234.847 0 0 -48.3299zm-454.009 0l-127.982 0 0 -101.998 -49.8417 0 0 101.998 -236.311 0 0 48.3299 236.311 0 0 107.998 49.8417 0 0 -107.998 127.982 0 0 -48.3299zm455.993 -230.028l-545.802 0c-4.01568,-53.9991 -8.03137,-95.2898 -12.3305,-123.967l443.001 0c-5.3385,-79.3688 -12.8502,-148.533 -22.8658,-207.02 -9.82662,-58.6762 -20.4564,-95.4788 -31.7948,-110.833 -11.5274,-15.3068 -25.8421,-27.1649 -43.0387,-35.4798 -17.2911,-8.1731 -52.6291,-12.3305 -105.967,-12.3305l-75.1642 0 -22.0154 50.6449c35.1491,-1.18108 67.9832,-1.84249 98.6441,-1.84249 42.708,0 69.3532,2.36217 80.0302,7.36996 10.8187,4.81882 19.3225,12.4722 25.6531,23.1492 6.33061,10.488 13.6533,40.4876 21.6847,89.8096 8.1731,49.3693 14.173,97.841 18.1414,145.698l-392.167 0c-11.9998,-65.3376 -41.9993,-126.99 -89.8096,-185.005 -47.8575,-58.0148 -105.353,-102.518 -172.344,-133.84l-37.653 41.9993c52.1567,24.5193 99.1638,57.0227 141.163,97.5103 41.9993,40.4876 71.6682,83.479 88.8175,128.833 17.3383,45.4953 28.157,120.471 32.8341,225.304l-269.145 0 0 49.3693 429.3 0c-12.4722,27.9681 -29.8106,58.2983 -52.2984,90.8017l51.3063 21.0233c24.9917,-41.6686 45.0229,-78.9909 59.9991,-111.825l381.821 0 0 -49.3693z"
     id="path15" /></glyph>
   <glyph
   unicode="－"
   horiz-adv-x="1000"
   id="glyph17"><path
     d="M355.999 270.994l0 65.0202 288.002 0 0 -65.0202 -288.002 0z"
     id="path19" /></glyph>
   <glyph
   unicode="堵"
   horiz-adv-x="1000"
   id="glyph21"><path
     d="M935.985 479l-233.807 0c-33.4955,-32.5034 -76.1563,-67.5107 -128.029,-105.022l287.665 0 0 -429.159 -52.6291 0 0 47.3378 -319.034 0 0 -46.3457 -52.1567 0 0 351.018 -112.817 -46.8182 -28.346 43.9836c133.51,48.8496 243.492,110.502 330.184,185.005l-275.996 0 0 48.8496 202.154 0 0 127.982 -188.029 0 0 49.1803 188.029 0 0 120.14 50.8338 0 0 -120.14 158.171 0 0 -49.1803 -158.171 0 0 -127.982 77.1484 0c62.503,59.8101 122.36,136.486 179.666,229.981l44.0308 -23.9996c-55.3692,-87.8254 -106.345,-156.517 -152.832,-205.981l183.966 0 0 -48.8496zm-126.801 -267.161l0 113.337 -319.034 0 0 -113.337 319.034 0zm0 -169.84l0 120.187 -319.034 0 0 -120.187 319.034 0zm-450.371 107.006c-55.9834,-24.85 -149.809,-62.1722 -281.665,-111.825l-17.9997 46.8182c75.8728,28.346 119.006,44.5032 129.872,48.8496l0 371.994 -117.211 0 0 49.3221 117.211 0 0 270.988 52.1567 0 0 -270.988 69.8257 0 0 -49.3221 -69.8257 0 0 -351.018c34.8183,12.9919 71.4792,28.4877 109.841,46.3457l7.79515 -51.1645z"
     id="path23" /></glyph>
   <glyph
   unicode="統"
   horiz-adv-x="1000"
   id="glyph25"><path
     d="M935.985 661.171l-306.137 0c-44.8339,-93.4946 -89.5261,-168.517 -133.699,-225.162 98.1717,4.34639 202.532,15.3068 313.034,33.1648 -23.5272,34.0152 -48.3299,64.8179 -74.361,92.8332l44.0308 27.8263c63.1644,-75.1642 112.156,-144.848 146.974,-209.005l-41.9993 -30.6609c-13.984,27.3539 -29.3381,52.1567 -46.015,74.6445l-92.6442 -14.6454 0 -372.986c0,-14.6927 7.65342,-22.0154 22.8185,-22.0154l70.865 0c9.49591,0 17.1493,2.8346 22.9603,8.83451 5.85818,5.81093 10.866,26.1728 14.8344,60.9912 4.20466,34.8656 6.51958,74.1721 7.18099,118.156l50.3614 -18.1414c-1.70076,-75.1642 -6.85029,-126.518 -15.2124,-154.013 -8.45656,-27.4956 -20.976,-45.4953 -37.3222,-53.9991 -16.4879,-8.31483 -44.3143,-12.6612 -83.3373,-12.6612 -39.6372,0 -66.8021,4.67709 -81.4948,14.173 -14.6454,9.49591 -21.9682,27.3067 -21.9682,53.6684l0 371.663c-55.3692,-6.51958 -89.6679,-9.82662 -103.038,-9.82662 0,-200.831 -61.9833,-348.987 -185.997,-444.843l-34.6766 35.6687c54.3771,43.6529 96.0457,96.1875 125.195,157.509 29.1491,61.3219 43.9836,143.667 44.645,246.799 -16.6297,-2.64563 -53.1488,-4.62985 -109.794,-6.33061l-11.1967 45.3536c51.6842,49.8417 103.51,127.51 155.194,233.004l-169.367 0 0 48.8496 192.328 0c11.3384,25.6531 27.0232,64.9596 46.8654,118.156l48.8024 -15.1651c-16.8186,-46.1568 -30.8027,-80.5027 -41.9993,-102.991l284.169 0 0 -48.8496zm-518.968 -412.151l-45.8733 -16.2045c-4.96055,22.8658 -10.2991,42.1883 -16.1572,58.2038 -87.3057,-27.6846 -175.32,-50.6921 -264.138,-68.8336l-14.6927 45.826c70.6761,71.6682 136.155,153.966 196.863,247.177 -52.8653,-11.1967 -111.683,-20.8343 -176.832,-29.3381l-13.1809 47.3378c76.1563,98.6441 131.148,196.627 164.974,293.995l47.0071 -17.1966c-29.0074,-84.8018 -77.6681,-174.328 -145.982,-267.964 52.6763,6.14164 104.975,15.8265 157.179,28.8184 11.6691,17.48 24.9917,42.6607 39.9679,75.1642l46.015 -19.9839c-52.1567,-108.707 -128.502,-221.004 -228.989,-337.034 39.6372,6.85029 98.1717,23.5272 175.651,49.8417 -6.85029,19.5115 -15.1651,40.1568 -24.85,61.9833l44.8339 19.1808c31.3696,-73.9831 50.6921,-131.006 58.2038,-170.974zm-3.87395 -175.84l-46.9599 -15.0234c-8.5038,44.5032 -21.8264,91.8411 -40.0151,142.014l45.826 13.6533c16.6769,-42.33 30.3302,-89.1482 41.149,-140.643zm-237.303 113.809c-17.3383,-105.164 -37.5112,-183.493 -60.6605,-234.799l-47.3378 16.9604c27.3067,66.1879 47.0071,142.864 59.1487,230.028l48.8496 -12.1888zm122.974 -192.8l-50.8338 -10.3463c-1.79525,73.6524 -12.6612,141.636 -32.1255,204.139l50.3142 7.8424c20.5036,-93.4946 31.3223,-160.675 32.6452,-201.635z"
     id="path27" /></glyph>
   <glyph
   unicode="止"
   horiz-adv-x="1000"
   id="glyph29"><path
     d="M940.001 -24.85l-872.159 0 0 50.6921 157.32 0 0 639.155 51.6842 0 0 -639.155 251.996 0 0 800.302 52.1567 0 0 -309.964 315.019 0 0 -52.3456 -315.019 0 0 -437.993 359.002 0 0 -50.6921z"
     id="path31" /></glyph>
   <glyph
   unicode="華"
   horiz-adv-x="1000"
   id="glyph33"><path
     d="M940.001 683.186l-236.831 0 0 -70.3453 -53.3377 0 0 70.3453 -123.022 0 0 48.8024 123.022 0 0 89.8569 53.3377 0 0 -89.8569 236.831 0 0 -48.8024zm-460.009 0l-122.171 0 0 -70.3453 -51.637 0 0 70.3453 -237.351 0 0 48.8024 237.351 0 0 89.8569 51.637 0 0 -89.8569 122.171 0 0 -48.8024zm461.851 -477.205l-413.001 0 0 -83.9987 344.168 0 0 -51.1645 -344.168 0 0 -125.006 -51.826 0 0 125.006 -339.869 0 0 51.1645 339.869 0 0 83.9987 -407.19 0 0 48.8496 407.19 0 0 283.318 -353.994 0 0 47.8575 758.823 0 0 -47.8575 -353.002 0 0 -281.334 413.001 0 0 -50.8338zm-29.6688 172.013l-140.171 0 0 -76.1563 -51.826 0 0 76.1563 -131.337 0 0 50.1724 131.337 0 0 65.0069 51.826 0 0 -65.0069 140.171 0 0 -50.1724zm-497.189 0l-127.841 0 0 -78.1405 -51.3063 0 0 78.1405 -143.006 0 0 50.1724 143.006 0 0 65.0069 51.3063 0 0 -65.0069 127.841 0 0 -50.1724z"
     id="path35" /></glyph>
   <glyph
   unicode="安"
   horiz-adv-x="1000"
   id="glyph37"><path
     d="M902.82 529.834l-52.6763 0 0 136.155 -692.965 0 0 -136.155 -55.1802 0 0 187.981 378.986 0c-13.984,30.1885 -29.9995,59.3376 -47.8103,87.353l47.8103 23.0075c18.1887,-28.6767 36.8498,-65.5265 56.1723,-110.36l365.664 0 0 -187.981zm36.1884 -141.683l-236.831 0c-34.5349,-96.9906 -81.4948,-178.296 -141.163,-244.154 202.154,-80.9751 322.152,-133.179 359.805,-156.187l-31.653 -44.9757c-49.8417,29.0074 -173.478,82.6759 -371.144,161.147 -109.038,-78.4712 -246.705,-131.478 -413.001,-159.163l-28.8657 51.3535c147.163,20.8343 273.822,64.0147 379.837,129.825 -76.8177,30.8499 -171.163,63.3533 -283.177,97.1796 51.1645,53.3377 94.8646,108.329 131.337,164.974l-237.303 0 0 51.826 269.996 0c33.3066,52.3456 67.3218,114.376 102.14,186.044l51.1645 -19.0391c-23.9996,-49.7945 -54.1409,-105.494 -90.3293,-167.005l262.342 0c11.3384,30.8499 19.6532,58.8652 24.85,84.0459l50.8338 -16.2045 -18.6611 -67.8415 219.823 0 0 -51.826zm-296.83 0l-273.019 0c-32.5034,-50.5031 -66.3297,-96.8016 -101.148,-139.132 61.9833,-17.858 141.163,-45.1646 237.823,-82.0145 56.6448,54.3299 101.998,128.171 136.344,221.146z"
     id="path39" /></glyph>
   <glyph
   unicode="里"
   horiz-adv-x="1000"
   id="glyph41"><path
     d="M937.992 -23.9884l-871.164 0 0 48.8272 407.342 0 0 148.005 -363.334 0 0 51.3075 363.334 0 0 120.013 -328.184 0 0 457.657 711.006 0 0 -457.657 -330.168 0 0 -120.013 365.353 0 0 -51.3075 -365.353 0 0 -148.005 411.169 0 0 -48.8272zm-133.832 624.973l0 151.017 -277.337 0 0 -151.017 277.337 0zm-329.991 0l0 151.017 -274.006 0 0 -151.017 274.006 0zm329.991 -205.974l0 154.808 -277.337 0 0 -154.808 277.337 0zm-329.991 0l0 154.808 -274.006 0 0 -154.808 274.006 0z"
     id="path43" /></glyph>
   <glyph
   unicode="金"
   horiz-adv-x="1000"
   id="glyph45"><path
     d="M940.993 508.811l-31.842 -46.9599c-65.1486,29.9995 -118.817,58.2983 -161.147,84.9908l0 -47.8575 -222.185 0 0 -141.966 357.018 0 0 -50.8338 -357.018 0 0 -280.342 377.994 0 0 -50.6921 -796.806 0 0 50.6921 367.175 0 0 280.342 -348.183 0 0 50.8338 348.183 0 0 141.966 -213.02 0 0 51.826c-61.1801,-36.4719 -115.51,-64.4872 -162.99,-83.9987l-34.1569 46.3457c186.8,73.6996 330.798,178.533 432.135,315.019l55.6999 -18.9918 -13.7006 -17.1966c104.172,-123.305 238.343,-217.839 402.844,-283.177zm-202.154 44.3615c-81.4948,48.4717 -159.352,114.849 -233.996,198.847 -58.8652,-69.6839 -138.187,-136.014 -237.681,-198.847l471.678 0zm-376.01 -463.316l-48.8496 -20.0312c-17.9997,44.6922 -50.9756,100.014 -99.1638,166.013l47.3378 22.0154c42.9914,-57.0227 76.5342,-113.006 100.676,-167.997zm441.347 142.155c-39.023,-73.3689 -76.487,-129.683 -112.345,-168.989l-46.8182 28.8184c35.8105,36.1412 73.8414,91.1797 113.809,164.974l45.3536 -24.8028z"
     id="path47" /></glyph>
   <glyph
   unicode="快"
   horiz-adv-x="1000"
   id="glyph49"><path
     d="M934.165 334.987l-328.148 0c-22.1813,-158.493 -113.847,-291.475 -275.034,-398.98l-34.1577 45.0004c149.848,98.3275 234.675,216.321 255.014,353.979l-244.667 0 0 53.1855 252.002 0c5.17327,42.6618 8.00794,114.981 8.64574,216.817l-193.82 0 0 53.1855 194.848 0c1.98427,50.8114 2.9764,106.158 2.9764,166.005l52.1933 0c0.6378,-33.8388 -0.354333,-89.1857 -2.83467,-166.005l232.833 0 0 -270.002 80.1502 0 0 -53.1855zm-134.328 53.1855l0 216.817 -178.655 0c-3.68507,-138.332 -5.66934,-210.651 -6.02367,-216.817l184.679 0zm-408.653 95.67l-35.1853 -39.0121c-23.8466,34.831 -56.1619,72.851 -97.1582,114.343l0 -610.021 -52.8311 0 0 868.684 52.8311 0 0 -189.001c54.9926,-50.6697 99.0008,-99.0008 132.344,-144.993zm-225.179 117.143c-13.004,-95.6346 -31.3231,-174.651 -55.1697,-237.155l-48.8272 18.9923c20.8348,51.1658 38.1617,126.851 51.839,227.021l52.1579 -8.85834zm774.998 -619.977l-38.1617 -36.1775c-91.5243,121.997 -178.017,214.159 -259.833,276.345l33.8388 38.6578c94.6425,-75.0124 182.659,-167.848 264.156,-278.825z"
     id="path51" /></glyph>
   <glyph
   unicode="東"
   horiz-adv-x="1000"
   id="glyph53"><path
     d="M938.017 32.1727l-29.8578 -47.3378c-165.304,65.4793 -291.822,151.509 -379.317,258.327l0 -290.972 -50.8338 0 0 289.98c-118.156,-124.014 -247.177,-211.65 -387.159,-263.193l-27.8263 46.8654c148.958,58.3455 271.13,138.99 366.136,242.169l-270.988 0 0 335.995 319.837 0 0 82.0145 -398.025 0 0 50.8338 398.025 0 0 88.2978 50.8338 0 0 -88.2978 399.348 0 0 -50.8338 -399.348 0 0 -82.0145 316.341 0 0 -335.995 -271.035 0c82.6759,-98.1717 203.997,-176.832 363.868,-235.839zm-145.037 428.828l0 94.156 -264.138 0 0 -94.156 264.138 0zm-314.971 0l0 94.156 -266.169 0 0 -94.156 266.169 0zm314.971 -144.187l0 94.345 -264.138 0 0 -94.345 264.138 0zm-314.971 0l0 94.345 -266.169 0 0 -94.345 266.169 0z"
     id="path55" /></glyph>
   <glyph
   unicode="濱"
   horiz-adv-x="1000"
   id="glyph57"><path
     d="M254.837 725.994l-30.6853 -40.0043c-42.3074,39.1893 -88.4771,72.4966 -138.155,100.17l24.8388 42.024c50.1736,-24.201 98.1504,-58.1816 144.001,-102.19zm660.159 -138.155l-52.1579 0 0 118.17 -515.662 0 0 -116.186 -52.1933 0 0 163.171 280.171 0c-8.8229,22.0041 -17.5041,41.4925 -26.327,58.0044l53.1855 12.1536 27.8152 -70.158 285.168 0 0 -165.155zm-56.1619 -500.992l-342.676 0 28.8427 -36.0003c-83.3392,-44.6815 -168.344,-77.5282 -255.014,-98.6819l-31.1459 40.9964c116.151,33.5199 197.824,64.843 244.986,93.6858l-152.824 0 0 283.325c-40.6775,-8.1851 -71.0084,-13.1812 -91.17,-15.1655l-26.0081 44.8232c143.328,20.3387 251.329,41.8468 324.357,65.0202l0 135.32 -153.356 0 0 44.8232 402.346 0 0 -44.8232 -199.348 0 0 -117.32c70.0163,20.6576 138.686,50.1382 206.187,88.9731l36.142 -35.6459c-63.1422,-37.8428 -145.489,-73.1699 -247.148,-106.017l255.829 0 0 -343.314zm-51.6618 250.974l0 46.0279 -373.007 0 -31.3231 -5.8465 0 -40.1814 404.33 0zm0 -99.9929l0 52.1579 -404.33 0 0 -52.1579 404.33 0zm0 -103.997l0 55.1697 -404.33 0 0 -55.1697 404.33 0zm-321.345 408.157c-57.6501,-37.8074 -116.505,-65.8352 -176.671,-83.977l-30.3309 41.9885c61.8312,16.3348 120.013,41.9885 174.332,77.1738l32.6695 -35.1853zm-248.99 -76.1463l-29.8349 -40.0043c-39.6854,36.0003 -85.9967,68.4927 -139.182,97.1582l31.3585 43.0161c49.8193,-27.4963 95.67,-60.8391 137.659,-100.17zm-0.992134 -201.687c-33.5199,-124.655 -76.8549,-230.813 -129.828,-318.333l-42.024 32.1735c50.6697,85.6778 93.6858,192.013 128.836,318.829l43.0161 -32.6695zm703.139 -271.986l-27.8152 -40.9964c-68.6698,26.327 -155.163,49.3232 -259.337,68.8116l31.3231 43.0161c107.682,-19.1694 193.005,-42.8389 255.829,-70.8313z"
     id="path59" /></glyph>
   <glyph
   unicode="萬"
   horiz-adv-x="1000"
   id="glyph61"><path
     d="M935.015 706.009l-222.167 0 0 -48.8272 -48.8626 0 0 48.8272 -138.155 0 0 46.9846 138.155 0 0 70.158 48.8626 0 0 -70.158 222.167 0 0 -46.9846zm-455 0l-112.855 0 0 -48.8272 -51.1658 0 0 48.8272 -246.155 0 0 46.9846 246.155 0 0 70.158 51.1658 0 0 -70.158 112.855 0 0 -46.9846zm420.806 -684.005c0,-20.5159 -4.64177,-36.6735 -13.819,-48.3311 -9.31897,-11.8347 -22.0041,-18.8505 -37.8428,-21.012 -15.9804,-2.3386 -43.6539,-3.5079 -82.9849,-3.5079l-20.0198 50.8469 75.6856 1.98427c19.4883,0 29.1616,9.53157 29.1616,28.8427l0 193.324 -322.16 0 0 -105.981c44.0082,3.01183 88.6542,7.51187 134.328,13.6773 -5.98824,8.14967 -16.6537,20.8348 -32.3506,38.1617l42.024 26.823c49.5004,-57.3312 81.8156,-101.339 97.1582,-131.847l-44.0082 -24.9805c-6.83864,15.9804 -17.5041,33.1656 -32.1735,51.839 -134.647,-19.8427 -280.136,-32.4924 -435.972,-37.6657l-17.6812 47.835c89.0086,1.31103 168.167,4.64177 237.829,9.81504l0 112.324 -302.176 0 0 -270.994 -49.8193 0 0 270.994 -58.1816 0 0 47.835 58.1816 0 0 29.8349 49.8193 0 0 -29.8349 302.176 0 0 69.8391 -293.813 0 0 280.171 637.659 0 0 -280.171 -292.998 0 0 -69.8391 371.979 0 0 -249.982zm-128.836 484.835l0 67.3234 -243.144 0 0 -67.3234 243.144 0zm-293.991 0l0 67.3234 -244.171 0 0 -67.3234 244.171 0zm293.991 -116.682l0 69.8391 -243.144 0 0 -69.8391 243.144 0zm-293.991 0l0 69.8391 -244.171 0 0 -69.8391 244.171 0z"
     id="path63" /></glyph>
   <glyph
   unicode="一"
   horiz-adv-x="1000"
   id="glyph65"><path
     d="M936.977 377.994l-866.16 0 0 56.1723 866.16 0 0 -56.1723z"
     id="path67" /></glyph>
   <glyph
   unicode="七"
   horiz-adv-x="1000"
   id="glyph69"><path
     d="M939.009 485.851l-466.859 -48.8496 0 -376.01c0,-31.1806 16.6769,-46.8182 49.8417,-46.8182l389.191 0 0 -53.196 -392.167 0c-68.0304,0 -101.998,35.8577 -101.998,107.857l0 362.356 -338.829 -34.2042 -9.35418 53.196 348.183 35.6687 0 342.325 55.133 0 0 -336.987 462.843 48.8024 4.01568 -54.1409z"
     id="path71" /></glyph>
   <glyph
   unicode="線"
   horiz-adv-x="1000"
   id="glyph73"><path
     d="M948.161 29.8349l-36.9924 -39.6854c-86.67,54.5319 -156.332,126.674 -208.986,216.852l0 -184.998c0,-21.1537 -6.51974,-39.0121 -19.5238,-53.5044 -13.004,-14.4922 -44.646,-21.6498 -94.8196,-21.6498 -17.1852,0 -32.4924,0.814967 -45.8508,2.30317l-17.1497 49.8547c14.3151,-0.992134 33.6617,-1.52363 57.6501,-1.52363 29.3388,0 47.6933,2.3386 55.1697,6.6969 7.51187,4.32287 11.3387,11.9765 11.3387,22.6419l0 391.184 -193.998 0 0 310.999 133.832 0c19.1694,27.3191 37.6657,60.6619 55.1697,100.17l49.8193 -22.0041c-13.6418,-29.6577 -28.9845,-55.6658 -45.8153,-78.166l239.175 0 0 -310.999 -184.998 0 0 -113.847c5.13784,-14.3151 14.8111,-32.9884 28.8073,-56.1619 44.8586,33.3428 85.855,74.3392 123.025,123.166l35.1499 -40.1814c-37.1696,-43.8311 -80.5046,-85.4652 -130.324,-124.973 49.1461,-68.3509 112.324,-126.993 189.32,-176.175zm-114.166 568.315l0 84.0125 -327.156 0 0 -84.0125 327.156 0zm0 -133.3l0 84.9692 -327.156 0 0 -84.9692 327.156 0zm-409.149 177.308c-56.6934,-106.832 -143.859,-223.478 -261.675,-350.152 53.3272,6.83864 107.328,19.1694 162.001,37.1696 -6.51974,19.8072 -15.3426,40.8192 -26.327,63.0005l48.3311 10.6654c22.5002,-44.0082 41.6696,-93.8275 57.6501,-149.848l-47.835 -19.1694c-2.6575,13.004 -7.6536,30.1892 -15.1655,51.3429 -77.4927,-26.6813 -163.171,-44.8232 -256.821,-54.1776l-11.8347 40.0043c71.6462,71.0084 138.651,147.686 200.836,229.998 -69.662,-12.3308 -127.666,-19.6655 -173.836,-22.0041l-3.01183 40.9964c83.3392,101.02 143.186,202.006 179.683,303.168l51.3429 -18.9923c-37.1696,-92.1621 -88.3353,-180.816 -153.356,-265.998 47.5161,2.16143 93.8275,9.17724 139.182,21.012 26.6459,40.3232 46.9846,74.6581 60.9808,103.005l49.8547 -20.0198zm181.171 -308.164c-8.85834,-149.493 -74.5163,-267.841 -196.832,-355.007l-33.201 42.024c99.8512,65.4808 157.856,153.816 173.836,265.148l-118.666 0 0 47.835 174.864 0zm-177.84 -236.837l-46.3468 -11.1615c-11.3387,42.52 -26.6459,81.3195 -45.8153,116.186l48.8272 7.83077c19.4883,-38.1972 33.9806,-75.6856 43.335,-112.855zm-120.013 -117.143l-54.3193 -13.1812c-0.496067,74.162 -8.1851,149.174 -22.8545,225.002l48.8272 4.9961c15.5198,-71.6817 25.0159,-144.001 28.3467,-216.817zm-130.005 211.821c-11.9765,-84.1542 -33.4845,-166.997 -64.3115,-247.998l-47.835 25.3348c25.9726,59.9887 46.9846,135.497 62.8233,226.667l49.3232 -4.00397z"
     id="path75" /></glyph>
   <glyph
   unicode="瑞"
   horiz-adv-x="1000"
   id="glyph77"><path
     d="M881.83 578.166l-468.677 0 0 196.655 49.6776 0 0 -147.828 159.167 0 0 190.844 49.8193 0 0 -190.844 159.167 0 0 147.828 50.8469 0 0 -196.655zm-530.827 -386.33c-61.158,-40.3232 -150.485,-91.4889 -268.018,-153.674l-24.8033 45.8508c44.8232,21.8269 87.4849,44.646 127.808,68.8116l0 272.022 -99.9929 0 0 52.1579 99.9929 0 0 229.998 -112.82 0 0 47.835 268.656 0 0 -47.835 -103.997 0 0 -229.998 81.0006 0 0 -52.1579 -81.0006 0 0 -243.675c27.6734,15.3426 62.0084,36.3192 103.005,63.0005l10.1694 -52.3351zm584.012 258.345l-275.849 0c-8.14967,-27.6734 -21.8269,-65.0202 -40.9964,-112.359l278.825 0 0 -338.814c0,-36.8507 -27.3191,-55.1697 -81.9928,-55.1697 -7.83077,0 -17.823,0.3189 -29.8349,0.992134l-18.0001 53.1855c31.8191,-1.84253 49.9965,-2.83467 54.6737,-2.83467 6.4843,0 12.508,2.6575 18.0001,8.32684 5.49217,5.49217 8.32684,11.9765 8.32684,19.4883l0 265.183 -107.009 0 0 -316.03 -50.1736 0 0 316.03 -99.1425 0 0 -316.03 -48.8272 0 0 316.03 -107.009 0 0 -341.329 -47.835 0 0 390.972 173.836 0c15.9804,28.0278 31.3231,65.5163 45.8153,112.359l-242.648 0 0 47.835 569.839 0 0 -47.835z"
     id="path79" /></glyph>
   <glyph
   unicode="瑪"
   horiz-adv-x="1000"
   id="glyph81"><path
     d="M916.993 754.854l-235.839 0 0 -101.998 203.666 0 0 -49.8417 -203.666 0 0 -103.038 203.666 0 0 -50.7866 -203.666 0 0 -111.353 231.02 0c-2.69287,-95.6678 -7.32272,-171.824 -14.0313,-228.516 -6.66131,-56.6448 -13.984,-92.5025 -22.1571,-107.668 -8.1731,-15.1651 -19.9839,-26.976 -35.4798,-35.8105 -15.3541,-8.83451 -42.6607,-13.1809 -81.6838,-13.1809 -12.3305,0 -24.661,0.519677 -36.6608,1.51179l-18.9918 51.637c21.165,-2.45665 39.6844,-3.82671 55.6527,-3.82671 35.8577,0 60.3298,9.16521 73.5107,27.4956 13.1809,18.5194 22.0154,105.353 26.5035,260.5l-449.662 0 0 514.197 507.819 0 0 -49.3221zm-287.145 -101.998l0 101.998 -169.84 0 0 -101.998 169.84 0zm0 -152.879l0 103.038 -169.84 0 0 -103.038 169.84 0zm0 -162.139l0 111.353 -169.84 0 0 -111.353 169.84 0zm-272.83 376.01l-114.849 0 0 -229.036 100.676 0 0 -49.7945 -100.676 0 0 -279.161c32.5034,12.3305 68.1722,26.8342 107.006,43.3222l2.8346 -50.1724c-98.3607,-42.33 -188.029,-75.1642 -269.004,-98.1717l-16.1572 48.3299 124.156 37.9837 0 297.869 -106.014 0 0 49.7945 106.014 0 0 229.036 -112.817 0 0 50.3142 278.83 0 0 -50.3142zm448.15 -610.857l-45.3536 -14.173c-9.49591,43.7001 -25.1335,89.9986 -46.9599,139.179l42.9914 16.1572c21.4957,-48.4717 37.9837,-95.4788 49.3221,-141.163zm-346.152 128.029c-21.4957,-98.3607 -48.5189,-180.706 -81.0223,-247.177l-47.0071 20.976c33.3538,57.0227 60.6605,136.864 82.1562,239.335l45.8733 -13.1337zm239.146 -165.021l-46.3457 -16.1572c-10.9605,54.9913 -27.3067,112.156 -48.8024,171.304l41.0072 12.7085c26.1256,-67.6997 44.1253,-123.683 54.1409,-167.856zm-127.321 -56.1723l-47.8575 -5.0078c0,75.1642 -6.99202,147.683 -20.976,217.367l45.826 4.81882c14.9761,-86.8333 22.6768,-159.352 23.0075,-217.178z"
     id="path83" /></glyph>
   <glyph
   unicode="暖"
   horiz-adv-x="1000"
   id="glyph85"><path
     d="M909.151 785.184c-133.132,-35.527 -305.806,-57.1645 -517.976,-65.0069l-17.1966 48.8024c192.706,3.35428 363.538,23.3382 512.165,60.188l23.0075 -43.9836zm-584.967 -708.036l-47.3378 0 0 45.8733 -126.99 0 0 -88.8647 -49.7 0 0 735.862 224.028 0 0 -692.871zm-50.1724 400.86l0 243.162 -124.156 0 0 -243.162 124.156 0zm1.84249 -305.192l0 254.027 -125.998 0 0 -254.027 125.998 0zm636.321 537.204c-22.1571,-49.511 -49.1803,-94.2032 -81.1641,-133.84l-44.8339 24.8028c32.1727,38.834 59.4794,82.5341 81.9672,131.006l44.0308 -21.9682zm-220.343 -119.195l-48.8496 -15.6375c-10.9605,45.6371 -25.6531,85.1325 -43.7946,118.628l46.8182 16.2045c20.5036,-36.5191 35.8105,-76.2035 45.826,-119.195zm-176.643 -1.98422l-45.0229 -23.8579c-24.3303,42.8497 -49.1803,78.5184 -74.1721,106.864l41.0072 26.3145c34.8183,-38.6451 60.8494,-75.1642 78.1877,-109.321zm434.97 -594.652l-27.3067 -45.0229c-90.1876,26.5035 -164.69,56.6448 -223.697,90.849 -62.8337,-39.023 -138.47,-69.3532 -227.004,-90.849l-28.2988 47.8103c83.668,15.6848 153.635,39.6844 209.997,71.8571 -52.5346,39.023 -95.0064,88.0144 -128.029,147.021 -34.1569,-98.03 -96.4709,-185.525 -186.989,-262.673l-33.6845 41.0072c118.864,94.6284 185.666,215.288 200.69,361.79l-140.691 0 0 49.8417 144.706 0c3.49601,26.3618 5.99991,55.8416 7.32272,88.3451l-131.006 0 0 49.8417 527.85 0 0 -49.8417 -347.995 0c-1.03935,-27.3539 -3.02357,-56.8338 -5.99991,-88.3451l376.955 0 0 -49.8417 -382.813 0c-1.32281,-23.1492 -4.67709,-47.2906 -10.1573,-72.802l334.814 0 0 -49.3221c-39.6372,-72.8492 -84.4711,-128.171 -134.644,-166.013 56.9755,-29.0074 125.667,-53.5267 205.981,-73.6524zm-129.305 239.666l-249.02 0c37.653,-62.1722 81.1641,-107.668 130.344,-136.675 50.5031,36.8026 89.9986,82.2979 118.675,136.675z"
     id="path87" /></glyph>
   <glyph
   unicode="路"
   horiz-adv-x="1000"
   id="glyph89"><path
     d="M943.838 392.176l-31.6774 -47.0201c-85.3235,32.3506 -161.328,70.1935 -227.978,113.847 -60.6973,-45.6736 -142.336,-84.6857 -245.199,-117.178l-34.1577 48.3311c98.0086,27.9923 176.352,61.3351 235.348,99.9929 -43.335,37.5239 -80.8235,82.8432 -112.324,135.851 -33.5199,-28.3467 -60.5202,-48.65 -81.0006,-61.0162l-41.0318 39.0121c102.509,60.8391 173.694,135.674 213.344,224.187l50.8469 -16.193c-11.1615,-26.0081 -24.5199,-51.1658 -40.1814,-75.1541l252.994 0 0 -46.8429c-45.3193,-81.1778 -96.485,-146.34 -153.816,-195.84 60.8391,-39.6499 132.485,-73.8077 214.832,-101.977zm-126.001 296.825l-227.021 0c-1.98427,-3.33073 -5.81107,-8.32684 -11.6576,-14.9883 -5.98824,-6.6969 -9.6733,-10.8426 -11.3387,-12.8623 29.0199,-55.9847 67.9966,-101.481 117.178,-136.312 52.1579,42.9807 96.3433,97.6543 132.84,164.163zm-394.019 -620.154c-109.312,-43.0161 -224.329,-80.8589 -344.66,-113.847l-14.1733 52.8311c23.3506,5.49217 41.1736,10.4883 53.1855,15.1655l0 407.165 49.8193 0 0 -391.999c13.9962,2.51577 41.6696,10.4883 83.0203,23.8466l0 442.811 -144.001 0 0 284.175 285.983 0 0 -284.175 -91.17 0 0 -153.816 110.339 0 0 -51.1658 -110.339 0 0 -219.829c40.3586,12.8269 81.0006,28.3112 121.997,46.9846l0 -58.1461zm-82.9849 485.331l0 184.643 -181.667 0 0 -184.643 181.667 0zm531.181 -605.024l-52.1933 0 0 46.0279 -275.813 0 0 -46.0279 -52.8311 0 0 366.841 380.838 0 0 -366.841zm-52.1933 95.8472l0 220.183 -275.813 0 0 -220.183 275.813 0z"
     id="path91" /></glyph>
   <glyph
   unicode="系"
   horiz-adv-x="1000"
   id="glyph93"><path
     d="M606.983 799.83c-93.1639,-84.3294 -233.146,-150.848 -419.993,-199.65l-39.9679 45.826c185.808,40.3458 324.137,101.337 414.986,183.162l44.9757 -29.3381zm305.192 -557.661l-45.0229 -30.3302c-15.3068,23.4799 -35.0073,49.511 -59.0069,78.1405 -129.636,-13.6533 -219.304,-22.6296 -269.145,-26.8342l0 -253.319c0,-14.6454 -4.81882,-27.1649 -14.6454,-37.1805 -9.68489,-10.1573 -20.6926,-16.4879 -32.6924,-18.9918 -11.9998,-2.64563 -34.3459,-3.96844 -66.8493,-3.96844 -18.3304,0 -35.1491,0.472434 -50.8338,1.46454l-21.9682 52.6763c18.6611,-0.803137 37.9837,-1.32281 58.1566,-1.32281 34.1569,0 55.1802,0.85038 63.0226,2.31492 7.79515,1.70076 11.6219,9.35418 11.6219,23.0075l0 230.028c-146.454,-9.16521 -256.815,-15.0234 -330.987,-17.669l-15.6375 43.9836c122.124,44.3143 241.98,97.841 359.805,160.675 -115.51,-6.85029 -218.5,-11.3384 -308.972,-13.6533l-13.1809 36.6608c150.99,54.9913 271.838,123.967 362.309,206.973l49.7 -28.8184c-69.0225,-59.8573 -152.029,-113.668 -249.02,-161.194 32.6924,1.37006 63.8258,2.69287 93.4946,4.20466 29.8578,1.46454 59.0069,3.30703 87.6837,5.6692 54.9913,4.48812 85.5105,8.64553 91.3214,12.1415 42.9914,27.0232 84.5184,56.1723 124.486,87.353l46.3457 -32.1727c-107.006,-82.3452 -267.823,-171.352 -482.307,-267.019 161.478,5.85818 317.475,18.5194 468.134,38.0309 -15.1651,17.669 -40.6765,41.8104 -76.1563,72.802l45.0229 30.1885c74.8335,-67.6525 133.321,-132.329 175.32,-193.839zm24.8028 -192.328l-34.1569 -42.9914c-71.9989,59.4794 -155.998,111.636 -251.996,156.328l34.1569 41.8104c95.8568,-45.4953 179.666,-97.3213 251.996,-155.147zm-553.125 115.179c-75.1642,-63.5423 -170.171,-115.51 -284.688,-156.187l-33.1648 44.3143c129.494,47.8575 221.524,96.5182 275.854,146.029l41.9993 -34.1569z"
     id="path95" /></glyph>
   <glyph
   unicode="八"
   horiz-adv-x="1000"
   id="glyph97"><path
     d="M361.837 795.814c-3.35428,-256.153 -27.0232,-445.316 -71.3375,-567.487 -44.1725,-122.313 -106.675,-214.674 -187.509,-277.177l-39.9679 41.9993c74.8335,58.0148 133.321,140.832 175.462,248.831 42.1883,107.857 65.6683,296.83 70.6761,567.204l52.6763 -13.3699zm577.172 -801.625l-41.0072 -46.015c-82.0145,87.6364 -143.856,191.336 -185.336,311.145 -41.4797,119.667 -65.0069,282.704 -70.4871,488.685l-123.163 0 0 52.8181 174.8 0c4.86607,-388.34 86.6915,-657.344 245.193,-806.633z"
     id="path99" /></glyph>
   <glyph
   unicode="公"
   horiz-adv-x="1000"
   id="glyph101"><path
     d="M415.988 805.152c-58.8194,-181.986 -164.836,-327.971 -317.837,-437.992l-39.9688 40.0043c146.659,99.674 248.636,238.325 305.648,415.988l52.1579 -18.0001zm528.843 -390.157l-33.6617 -43.8311c-119.836,77.9888 -215.506,206.683 -287.152,385.657l-66.8627 0 0 54.1776 107.859 0c58.6422,-180.675 151.832,-312.664 279.817,-396.003zm-74.6581 -448.161l-47.0201 -26.823c-20.8348,51.3075 -41.4925,93.6503 -61.9729,126.816 -188.683,-48.8272 -376.338,-81.3195 -563,-97.6543l-15.0237 50.8114c101.835,119.836 199.171,291.191 292.006,514.173l50.6697 -22.0041c-84.3314,-200.163 -172.49,-361.314 -264.652,-483.311 128.977,9.1418 286.833,37.3113 473.638,85.0046 -29.7994,52.9729 -70.6541,114.662 -121.997,184.998l46.3468 27.3191c92.5165,-127.347 162.816,-247.006 211.006,-359.33z"
     id="path103" /></glyph>
   <glyph
   unicode="速"
   horiz-adv-x="1000"
   id="glyph105"><path
     d="M935.015 142.159l-32.1735 -41.9885c-87.8393,86.1739 -162.852,145.489 -224.683,177.663l0 -222.663 -52.1579 0 0 252.002c-61.5123,-77.8471 -143.009,-146.836 -244.171,-207.002l-33.6617 41.9885c109.347,63.0005 192.651,133.017 249.982,209.836l-193.324 0 0 227.163 221.175 0 0 90.8511 -252.994 0 0 51.1658 252.994 0 0 100.666 52.1579 0 0 -100.666 252.994 0 0 -51.1658 -252.994 0 0 -90.8511 216.852 0 0 -227.163 -216.852 0 0 -18.9923c91.8432,-49.1815 177.521,-112.82 256.856,-190.844zm-92.1976 260.683l0 125.009 -164.659 0 0 -125.009 164.659 0zm-216.817 0l0 125.009 -169.017 0 0 -125.009 169.017 0zm-347.176 270.002l-36.6735 -38.02c-29.3034,42.3429 -76.9967,90.8511 -142.974,146.021l35.6459 40.0043c63.6737,-53.6815 111.686,-103.005 144.001,-148.005zm666.997 -653.852l-13.6418 -49.8193 -355.007 0c-165.013,0 -283.325,36.3192 -355.007,108.993 -35.8231,-50.8469 -75.5085,-96.1661 -119.162,-136.348l-40.9964 35.1853c108.143,92.481 173.978,200.163 197.824,322.833l-166.997 0 0 49.3232c93.0125,115.513 146.481,183.828 160.159,205.017l-179.824 0 0 48.8272 239.813 0 0 -48.8272 -157.147 -205.017 156.155 0 0 -49.3232c-14.9883,-68.9887 -36.6735,-128.658 -64.9848,-178.655 67.1462,-68.1738 168.344,-102.19 303.841,-102.19l394.976 0z"
     id="path107" /></glyph>
   <glyph
   unicode="端"
   horiz-adv-x="1000"
   id="glyph109"><path
     d="M380.829 616.148l-70.8178 0 37.1333 -34.1569c-5.81093,-103.179 -24.4721,-261.823 -56.1251,-475.977 17.2911,4.81882 42.33,13.4644 75.1642,25.8421l1.98422 -53.6684c-65.4793,-25.5114 -163.32,-53.9991 -293.995,-86.0301l-11.1494 52.8653c26.6452,4.15741 52.6291,10.1573 78.1405,17.9997 0,159.163 -11.8108,333.16 -35.1491,521.992l38.9758 31.1334 -68.8336 0 0 49.8417 129.825 0c-10.9605,41.3379 -27.3067,88.0144 -48.8024,140.171l47.0071 17.0076c19.795,-45.4953 37.3222,-97.841 52.6291,-157.179l124.014 0 0 -49.8417zm-83.0066 0l-143.006 0c23.0075,-191.336 35.527,-371.333 37.0388,-539.991 18.3304,4.86607 32.9759,9.16521 43.9836,12.6612 37.8419,228.847 58.4873,404.687 61.9833,527.33zm588.321 -16.9604l-454.953 0 0 175.651 50.7866 0 0 -127.841 146.029 0 0 171.824 50.1724 0 0 -171.824 155.809 0 0 127.841 52.1567 0 0 -175.651zm51.8732 -148.013l-263.193 0c-12.3305,-37.1805 -25.9838,-74.1721 -41.0072,-111.353l266.027 0 0 -323.664c0,-45.6371 -28.157,-68.3139 -84.3294,-68.3139 -7.8424,0 -16.6769,0.330703 -26.5035,1.32281l-13.1809 49.8417c13.984,-0.99211 25.6531,-1.51179 34.6766,-1.51179 26.3145,0 39.6372,10.8187 39.6372,32.3145l0 261.208 -95.2898 0 0 -308.168 -49.8417 0 0 308.168 -96.1875 0 0 -308.168 -48.8024 0 0 308.168 -97.1796 0 0 -345.207 -48.8496 0 0 394.01 165.163 0c16.1572,35.8577 29.8578,72.991 41.0072,111.353l-245.146 0 0 47.8103 562.999 0 0 -47.8103z"
     id="path111" /></glyph>
   <glyph
   unicode="隆"
   horiz-adv-x="1000"
   id="glyph113"><path
     d="M944.82 494.165l-25.8421 -47.3378c-115.982,20.1729 -208.154,48.6607 -276.799,85.3215 -65.8572,-33.4955 -157.179,-64.8179 -274.011,-94.156l-23.9996 47.8575c86.3136,16.299 168.848,41.3379 247.65,75.1642 -50.5031,42.6607 -83.0066,74.9752 -97.652,97.1323 -20.8343,-14.6454 -50.9756,-32.3145 -90.3293,-53.1488l-31.842 41.0072c101.006,51.826 175.651,112.156 224.17,181.178l43.9836 -22.0154c-8.83451,-16.8186 -21.8264,-34.3459 -39.1647,-52.1567l256.862 0 0 -49.8417c-38.0309,-52.4874 -92.03,-100.156 -161.997,-143.147 65.999,-28.0153 149.006,-49.8417 248.972,-65.8572zm-150.801 209.005l-242.169 0c-4.67709,-6.85029 -10.2046,-12.5195 -16.6769,-17.1493 28.0153,-37.0388 64.3454,-69.8729 108.849,-98.1717 65.1486,37.464 115.132,75.8256 149.998,115.321zm-428.875 48.8496c0,-7.8424 -31.9837,-88.2033 -96.1402,-240.847 56.3141,-71.1957 84.5184,-141.352 84.5184,-210.327 0,-36.1884 -8.36207,-65.3376 -24.85,-87.6837 -16.6769,-22.3461 -50.5031,-33.4955 -101.668,-33.4955 -10.677,0 -21.8264,0.519677 -33.1648,1.51179l-19.9839 51.637c14.3147,-1.13384 30.6609,-1.79525 48.8024,-1.79525 32.1727,0 53.3377,3.63774 63.4951,11.1494 10.0156,7.51169 15.1651,25.9838 15.1651,55.6527 0,69.3532 -29.1491,138.329 -87.4947,207.02 41.0072,97.652 72.8492,179.997 95.3371,247.177l-156.328 0 0 -801.861 -50.8338 0 0 851.656 263.145 0 0 -49.7945zm571.834 -777.862l-592.81 0 0 47.8575 280.814 0 0 90.8017 -167.997 0 0 49.3693 167.997 0 0 87.8254 -146.974 0c-30.5192,-53.3377 -60.8494,-95.3371 -90.849,-125.998l-38.9758 31.842c55.9834,60.4715 97.9827,128.124 125.998,202.957l42.9914 -18.9918c-3.02357,-13.984 -7.65342,-27.6374 -14.173,-41.0072l121.982 0 0 83.0066 -185.997 0 0 50.3614 418.86 0 0 -50.3614 -183.021 0 0 -83.0066 223.178 0 0 -48.8024 -223.178 0 0 -87.8254 200.17 0 0 -49.3693 -200.17 0 0 -90.8017 262.153 0 0 -47.8575z"
     id="path115" /></glyph>
   <glyph
   unicode="樂"
   horiz-adv-x="1000"
   id="glyph117"><path
     d="M627.014 353.994l-237.87 0 0 382.86 68.8336 0c17.3383,27.9681 32.8341,59.9991 46.8654,96.1402l50.3142 -11.1494c-9.49591,-25.5114 -23.4799,-53.8574 -41.9993,-84.9908l113.856 0 0 -382.86zm-50.8338 223.178l0 109.841 -138.187 0 0 -109.841 138.187 0zm0 -176.359l0 127.037 -138.187 0 0 -127.037 138.187 0zm-207.02 -47.8103l-41.9993 -23.0075c-5.81093,22.4878 -10.677,38.834 -14.173,48.8496l-225.162 -28.6767 -10.677 46.8182c56.692,50.8338 108.518,109.51 155.667,176.17l-135.636 -17.0076 -9.35418 41.9993c49.1803,58.5345 95.9985,135.872 140.171,231.87l46.015 -17.0076c-30.9916,-66.1879 -70.3453,-133.51 -118.156,-202.154l113.148 12.1415c22.4878,33.0231 40.8183,61.5108 55.1802,85.9829l42.9914 -23.9996c-76.8649,-119.998 -149.856,-213.823 -219.162,-281.145l147.824 17.9997c-3.49601,14.9761 -11.1494,34.3459 -22.8185,58.1566l37.9837 22.0154c21.4957,-37.5112 40.8183,-87.164 58.1566,-149.006zm575.66 0.99211l-41.9993 -25.8421c-2.64563,10.0156 -7.8424,27.0232 -15.6375,50.6921l-225.02 -25.8421 -11.3384 43.9836c59.0069,53.9991 109.699,113.998 152.36,180.186l-141.021 -14.173 -9.30694 39.023c50.4559,61.4636 94.4867,136.958 132.329,226.154l45.826 -17.1966c-35.527,-78.6602 -71.6682,-143.998 -108.849,-195.824l112.817 11.8581c14.0313,21.8264 29.8578,49.4638 47.8575,83.0066l46.3457 -20.0312c-66.6604,-117.494 -134.36,-212.642 -203.194,-285.161l144.187 16.0155c-6.85029,20.8343 -16.3462,42.1411 -28.346,63.9675l41.0072 21.0233c28.0153,-51.3535 48.6607,-101.998 61.9833,-151.84zm-8.83451 -143.006l-405.159 0 0 -262.815 -52.8181 0 0 262.815 -408.183 0 0 53.196 408.183 0 0 63.9675 52.8181 0 0 -63.9675 405.159 0 0 -53.196zm6.85029 -198.8l-34.6766 -39.023c-80.9751,52.0149 -177.682,101.006 -289.98,147.021l32.6452 39.9679c125.006,-53.3377 222.327,-102.66 292.011,-147.966zm-544.858 109.794c-96.3292,-63.6368 -196.627,-115.793 -300.798,-156.139l-34.1569 46.3457c92.4552,31.653 193.131,80.9751 302.121,147.966l32.8341 -38.1726z"
     id="path119" /></glyph>
   <glyph
   unicode="基"
   horiz-adv-x="1000"
   id="glyph121"><path
     d="M941.843 157.179l-28.6767 -48.3299c-127.321,50.1724 -219.351,121.132 -275.996,212.973l-273.35 0c-60.3298,-84.3294 -151.32,-152.502 -272.972,-204.658l-33.6845 46.015c106.345,39.3065 186.328,92.1718 239.666,158.643l-226.012 0 0 46.3457 183.021 0 0 331.979 -159.683 0 0 49.8417 159.683 0 0 70.865 50.3142 0 0 -70.865 402.844 0 0 70.865 50.8338 0 0 -70.865 160.155 0 0 -49.8417 -160.155 0 0 -331.979 182.17 0 0 -46.3457 -244.154 0c63.1644,-76.1563 145.132,-131.006 245.996,-164.643zm-234.847 467.804l0 75.1642 -402.844 0 0 -75.1642 402.844 0zm0 -126.99l0 79.1799 -402.844 0 0 -79.1799 402.844 0zm-402.844 -51.1645l0 -78.6602 402.844 0 0 78.6602 -402.844 0zm587.991 -475.646l-778.287 0 0 49.8417 365.144 0 0 105.967 -204.989 0 0 47.8575 204.989 0 0 96.1402 49.8417 0 0 -96.1402 203.146 0 0 -47.8575 -203.146 0 0 -105.967 363.301 0 0 -49.8417z"
     id="path123" /></glyph>
   <glyph
   unicode="二"
   horiz-adv-x="1000"
   id="glyph125"><path
     d="M869.183 726.981l-730.004 0 0 55.1802 730.004 0 0 -55.1802zm70.8178 -731.799l-871.167 0 0 52.6291 871.167 0 0 -52.6291z"
     id="path127" /></glyph>
   <glyph
   unicode="大"
   horiz-adv-x="1000"
   id="glyph129"><path
     d="M942.836 -11.1494l-35.6687 -45.0229c-107.337,68.6918 -193.178,148.155 -257.524,238.484 -64.2982,90.3765 -112.156,202.343 -143.809,335.711 -40.3458,-234.044 -176.501,-424.34 -408.655,-571.172l-34.1569 45.3064c58.818,37.5112 115.652,82.3452 170.312,134.833 54.8495,52.3456 100.014,107.668 135.825,165.682 35.8577,58.1566 63.4951,137.998 83.0066,239.477l-371.144 0 0 51.8732 380.829 0c10.488,81.9672 16.1572,162.99 17.1493,243.162l57.1645 0c-3.35428,-87.353 -9.68489,-168.328 -18.9918,-243.162l409.647 0 0 -51.8732 -370.671 0c35.8577,-142.817 85.1798,-254.642 148.013,-335.664 62.8337,-80.8334 142.344,-150.139 238.673,-207.635z"
     id="path131" /></glyph>
   <glyph
   unicode="往"
   horiz-adv-x="1000"
   id="glyph133"><path
     d="M940.993 -27.8263l-646.998 0 0 51.826 297.822 0 0 289.98 -251.996 0 0 52.2039 251.996 0 0 251.004 -265.649 0 0 51.826 266.689 0c-11.5274,41.0072 -30.7082,89.0065 -57.6841,143.998l49.8417 15.1651c23.0075,-42.9914 44.9757,-95.9985 65.81,-159.163l264.185 0 0 -51.826 -270.988 0 0 -251.004 250.957 0 0 -52.2039 -250.957 0 0 -289.98 296.972 0 0 -51.826zm-622.148 828.648c-52.3456,-71.3375 -127.841,-143.998 -226.012,-217.839l-35.6687 41.0072c94.6757,70.0146 166.013,137.667 213.823,203.194l47.8575 -26.3618zm7.32272 -230.973c-22.4878,-40.0151 -49.8417,-82.3452 -82.0145,-127.037l0 -491.662 -51.3063 0 0 425.852c-31.5113,-35.4798 -67.18,-71.4792 -106.864,-107.998l-26.8342 47.0071c96.3292,88.1561 169.178,182.501 218.689,283.177l48.3299 -29.3381z"
     id="path135" /></glyph>
   <glyph
   unicode="汐"
   horiz-adv-x="1000"
   id="glyph137"><path
     d="M928.19 645.013c-25.3697,-208.343 -87.5419,-362.829 -186.186,-463.693 -98.8331,-100.676 -222.185,-178.296 -370.01,-233.146l-42.8497 47.0071c153.021,46.1568 282.185,124.817 387.679,235.839 -54.6606,58.4873 -142.014,126.659 -261.823,203.997 -33.1648,-45.1646 -68.5029,-85.1798 -105.825,-119.998l-39.1647 41.9993c123.967,116.171 211.32,274.484 261.823,474.985l54.1881 -12.1888c-19.1808,-70.9595 -38.3616,-129.163 -57.2117,-174.8l359.38 0zm-61.0384 -53.196l-321.302 0c-18.5194,-39.1647 -38.5033,-75.6366 -59.9991,-109.841 114.801,-76.1563 203.005,-144.99 264.138,-206.123 53.6684,75.1642 92.8332,180.47 117.164,315.964zm-516.134 97.1796l-32.1727 -43.9836c-66.9911,52.8181 -131.998,93.8253 -194.832,122.974l34.1569 47.9992c72.991,-38.1726 137.147,-80.5027 192.847,-126.99zm-35.0073 -238.815l-30.8499 -44.3615c-64.8179,51.3535 -130.486,91.6993 -197.335,120.99l29.3381 47.3378c72.991,-34.4876 139.179,-75.8256 198.847,-123.967zm1.84249 -169.367c-65.6683,-137.478 -133.368,-242.973 -202.674,-317.003l-41.0072 44.0308c76.487,79.983 141.825,181.178 195.824,303.161l47.8575 -30.1885z"
     id="path139" /></glyph>
   <glyph
   unicode="五"
   horiz-adv-x="1000"
   id="glyph141"><path
     d="M938.017 -27.8263l-869.183 0 0 53.6684 227.004 0 83.0066 416.97 -228.989 0 0 54.1881 239.288 0 48.8496 251.004 -331.979 0 0 52.8181 796.806 0 0 -52.8181 -409.647 0 -49.3221 -251.004 338.31 0 0 -471.158 155.856 0 0 -53.6684zm-209.997 53.6684l0 416.97 -293.854 0 -81.1641 -416.97 375.018 0z"
     id="path143" /></glyph>
  </font>
</defs>
</svg>
