<?xml version="1.0" encoding="UTF-8" standalone="no"?>
<!-- Created with Inkscape (http://www.inkscape.org/) -->

<svg
   xmlns:ooo="http://xml.openoffice.org/svg/export"
   xmlns:dc="http://purl.org/dc/elements/1.1/"
   xmlns:cc="http://creativecommons.org/ns#"
   xmlns:rdf="http://www.w3.org/1999/02/22-rdf-syntax-ns#"
   xmlns:svg="http://www.w3.org/2000/svg"
   xmlns="http://www.w3.org/2000/svg"
   xmlns:sodipodi="http://sodipodi.sourceforge.net/DTD/sodipodi-0.dtd"
   xmlns:inkscape="http://www.inkscape.org/namespaces/inkscape"
   width="324.13208mm"
   height="138.71216mm"
   viewBox="0 0 324.13208 138.71216"
   version="1.1"
   id="svg8"
   inkscape:version="0.92.4 (5da689c313, 2019-01-14)"
   sodipodi:docname="MEDRS flowchart guideline-ar.svg">
  <defs
     id="defs2">
    <clipPath
       clipPathUnits="userSpaceOnUse"
       id="presentation_clip_path">
      <rect
         id="rect815"
         height="10923"
         width="29465"
         y="13346"
         x="-7637" />
    </clipPath>
    <font
       horiz-adv-x="2048"
       id="EmbeddedFont_1"
       horiz-origin-x="0"
       horiz-origin-y="0"
       vert-origin-x="45"
       vert-origin-y="90"
       vert-adv-y="90">
      <font-face
         id="font-face820"
         descent="423"
         ascent="1852"
         font-style="normal"
         font-weight="normal"
         units-per-em="2048"
         font-family="Liberation Sans embedded" />
      <missing-glyph
         id="missing-glyph822"
         d="M 0,0 L 2047,0 2047,2047 0,2047 0,0 Z"
         horiz-adv-x="2048" />
      <glyph
         id="glyph824"
         d="M 191,-425 C 142,-425 100,-421 67,-414 L 67,-279 C 92,-283 120,-285 151,-285 263,-285 352,-203 417,-38 L 434,5 5,1082 197,1082 425,484 C 428,475 432,464 437,451 442,438 457,394 482,320 507,246 521,205 523,196 L 593,393 830,1082 1020,1082 604,0 C 559,-115 518,-201 479,-257 440,-314 398,-356 351,-383 304,-411 250,-425 191,-425 Z"
         horiz-adv-x="980"
         unicode="y" />
      <glyph
         id="glyph826"
         d="M 613,0 L 400,0 7,1082 199,1082 437,378 C 446,351 469,272 506,141 L 541,258 580,376 826,1082 1017,1082 613,0 Z"
         horiz-adv-x="1033"
         unicode="v" />
      <glyph
         id="glyph828"
         d="M 314,1082 L 314,396 C 314,325 321,269 335,230 349,191 371,162 402,145 433,128 478,119 537,119 624,119 692,149 742,208 792,267 817,350 817,455 L 817,1082 997,1082 997,231 C 997,105 999,28 1003,0 L 833,0 C 832,3 832,12 831,27 830,42 830,59 829,78 828,97 826,132 825,185 L 822,185 C 781,110 733,58 679,27 624,-4 557,-20 476,-20 357,-20 271,10 216,69 161,128 133,225 133,361 L 133,1082 314,1082 Z"
         horiz-adv-x="874"
         unicode="u" />
      <glyph
         id="glyph830"
         d="M 554,8 C 495,-8 434,-16 372,-16 228,-16 156,66 156,229 L 156,951 31,951 31,1082 163,1082 216,1324 336,1324 336,1082 536,1082 536,951 336,951 336,268 C 336,216 345,180 362,159 379,138 408,127 450,127 474,127 509,132 554,141 L 554,8 Z"
         horiz-adv-x="531"
         unicode="t" />
      <glyph
         id="glyph832"
         d="M 950,299 C 950,197 912,118 835,63 758,8 650,-20 511,-20 376,-20 273,2 200,47 127,91 79,160 57,254 L 216,285 C 231,227 263,185 311,158 359,131 426,117 511,117 602,117 669,131 712,159 754,187 775,229 775,285 775,328 760,362 731,389 702,416 654,438 589,455 L 460,489 C 357,516 283,542 240,568 196,593 162,624 137,661 112,698 100,743 100,796 100,895 135,970 206,1022 276,1073 378,1099 513,1099 632,1099 727,1078 798,1036 868,994 912,927 931,834 L 769,814 C 759,862 732,899 689,925 645,950 586,963 513,963 432,963 372,951 333,926 294,901 275,864 275,814 275,783 283,758 299,738 315,718 339,701 370,687 401,673 467,654 568,629 663,605 732,583 774,563 816,542 849,520 874,495 898,470 917,442 930,410 943,377 950,340 950,299 Z"
         horiz-adv-x="927"
         unicode="s" />
      <glyph
         id="glyph834"
         d="M 142,0 L 142,830 C 142,906 140,990 136,1082 L 306,1082 C 311,959 314,886 314,861 L 318,861 C 347,954 380,1017 417,1051 454,1085 507,1102 575,1102 599,1102 623,1099 648,1092 L 648,927 C 624,934 592,937 552,937 477,937 420,905 381,841 342,776 322,684 322,564 L 322,0 142,0 Z"
         horiz-adv-x="530"
         unicode="r" />
      <glyph
         id="glyph836"
         d="M 1053,546 C 1053,169 920,-20 655,-20 488,-20 376,43 319,168 L 314,168 C 317,163 318,106 318,-2 L 318,-425 138,-425 138,861 C 138,972 136,1046 132,1082 L 306,1082 C 307,1079 308,1070 309,1054 310,1037 312,1012 314,978 315,944 316,921 316,908 L 320,908 C 352,975 394,1024 447,1055 500,1086 569,1101 655,1101 788,1101 888,1056 954,967 1020,878 1053,737 1053,546 Z M 864,542 C 864,693 844,800 803,865 762,930 698,962 609,962 538,962 482,947 442,917 401,887 371,840 350,777 329,713 318,630 318,528 318,386 341,281 386,214 431,147 505,113 607,113 696,113 762,146 803,212 844,277 864,387 864,542 Z"
         horiz-adv-x="927"
         unicode="p" />
      <glyph
         id="glyph838"
         d="M 1053,542 C 1053,353 1011,212 928,119 845,26 724,-20 565,-20 407,-20 288,28 207,125 126,221 86,360 86,542 86,915 248,1102 571,1102 736,1102 858,1057 936,966 1014,875 1053,733 1053,542 Z M 864,542 C 864,691 842,800 798,868 753,935 679,969 574,969 469,969 393,935 346,866 299,797 275,689 275,542 275,399 298,292 345,221 391,149 464,113 563,113 671,113 748,148 795,217 841,286 864,395 864,542 Z"
         horiz-adv-x="980"
         unicode="o" />
      <glyph
         id="glyph840"
         d="M 825,0 L 825,686 C 825,757 818,813 804,852 790,891 768,920 737,937 706,954 661,963 602,963 515,963 447,933 397,874 347,815 322,732 322,627 L 322,0 142,0 142,851 C 142,977 140,1054 136,1082 L 306,1082 C 307,1079 307,1070 308,1055 309,1040 310,1024 311,1005 312,986 313,950 314,897 L 317,897 C 358,972 406,1025 461,1056 515,1087 582,1102 663,1102 782,1102 869,1073 924,1014 979,955 1006,857 1006,721 L 1006,0 825,0 Z"
         horiz-adv-x="874"
         unicode="n" />
      <glyph
         id="glyph842"
         d="M 138,0 L 138,1484 318,1484 318,0 138,0 Z"
         horiz-adv-x="187"
         unicode="l" />
      <glyph
         id="glyph844"
         d="M 137,1312 L 137,1484 317,1484 317,1312 137,1312 Z M 137,0 L 137,1082 317,1082 317,0 137,0 Z"
         horiz-adv-x="187"
         unicode="i" />
      <glyph
         id="glyph846"
         d="M 317,897 C 356,968 402,1020 457,1053 511,1086 580,1102 663,1102 780,1102 867,1073 923,1015 978,956 1006,858 1006,721 L 1006,0 825,0 825,686 C 825,762 818,819 804,856 790,893 767,920 735,937 703,954 659,963 602,963 517,963 450,934 399,875 348,816 322,737 322,638 L 322,0 142,0 142,1484 322,1484 322,1098 C 322,1057 321,1015 319,972 316,929 315,904 314,897 L 317,897 Z"
         horiz-adv-x="874"
         unicode="h" />
      <glyph
         id="glyph848"
         d="M 548,-425 C 430,-425 336,-402 266,-355 196,-309 151,-243 131,-158 L 312,-132 C 324,-182 351,-220 392,-247 433,-274 486,-288 553,-288 732,-288 822,-183 822,27 L 822,201 820,201 C 786,132 739,80 680,45 621,10 551,-8 472,-8 339,-8 242,36 180,124 117,212 86,350 86,539 86,730 120,872 187,963 254,1054 355,1099 492,1099 569,1099 635,1082 692,1047 748,1012 791,962 822,897 L 824,897 C 824,917 825,952 828,1001 831,1050 833,1077 836,1082 L 1007,1082 C 1003,1046 1001,971 1001,858 L 1001,31 C 1001,-273 850,-425 548,-425 Z M 822,541 C 822,629 810,705 786,769 762,832 728,881 685,915 641,948 591,965 536,965 444,965 377,932 335,865 293,798 272,690 272,541 272,393 292,287 331,222 370,157 438,125 533,125 590,125 640,142 684,175 728,208 762,256 786,319 810,381 822,455 822,541 Z"
         horiz-adv-x="927"
         unicode="g" />
      <glyph
         id="glyph850"
         d="M 276,503 C 276,379 302,283 353,216 404,149 479,115 578,115 656,115 719,131 766,162 813,193 844,233 861,281 L 1019,236 C 954,65 807,-20 578,-20 418,-20 296,28 213,123 129,218 87,360 87,548 87,727 129,864 213,959 296,1054 416,1102 571,1102 889,1102 1048,910 1048,527 L 1048,503 276,503 Z M 862,641 C 852,755 823,838 775,891 727,943 658,969 568,969 481,969 412,940 361,882 310,823 282,743 278,641 L 862,641 Z"
         horiz-adv-x="980"
         unicode="e" />
      <glyph
         id="glyph852"
         d="M 821,174 C 788,105 744,55 689,25 634,-5 565,-20 484,-20 347,-20 247,26 183,118 118,210 86,349 86,536 86,913 219,1102 484,1102 566,1102 634,1087 689,1057 744,1027 788,979 821,914 L 823,914 821,1035 821,1484 1001,1484 1001,223 C 1001,110 1003,36 1007,0 L 835,0 C 833,11 831,35 829,74 826,113 825,146 825,174 L 821,174 Z M 275,542 C 275,391 295,282 335,217 375,152 440,119 530,119 632,119 706,154 752,225 798,296 821,405 821,554 821,697 798,802 752,869 706,936 633,969 532,969 441,969 376,936 336,869 295,802 275,693 275,542 Z"
         horiz-adv-x="927"
         unicode="d" />
      <glyph
         id="glyph854"
         d="M 275,546 C 275,402 298,295 343,226 388,157 457,122 548,122 612,122 666,139 709,174 752,209 778,262 788,334 L 970,322 C 956,218 912,135 837,73 762,11 668,-20 553,-20 402,-20 286,28 207,124 127,219 87,359 87,542 87,724 127,863 207,959 287,1054 402,1102 551,1102 662,1102 754,1073 827,1016 900,959 945,880 964,779 L 779,765 C 770,825 746,873 708,908 670,943 616,961 546,961 451,961 382,929 339,866 296,803 275,696 275,546 Z"
         horiz-adv-x="901"
         unicode="c" />
      <glyph
         id="glyph856"
         d="M 414,-20 C 305,-20 224,9 169,66 114,123 87,202 87,302 87,414 124,500 198,560 271,620 390,652 554,656 L 797,660 797,719 C 797,807 778,870 741,908 704,946 645,965 565,965 484,965 426,951 389,924 352,897 330,853 323,793 L 135,810 C 166,1005 310,1102 569,1102 705,1102 807,1071 876,1009 945,946 979,856 979,738 L 979,272 C 979,219 986,179 1000,152 1014,125 1041,111 1080,111 1097,111 1117,113 1139,118 L 1139,6 C 1094,-5 1047,-10 1000,-10 933,-10 885,8 855,43 824,78 807,132 803,207 L 797,207 C 751,124 698,66 637,32 576,-3 501,-20 414,-20 Z M 455,115 C 521,115 580,130 631,160 682,190 723,231 753,284 782,336 797,390 797,445 L 797,534 600,530 C 515,529 451,520 408,504 364,488 330,463 307,430 284,397 272,353 272,299 272,240 288,195 320,163 351,131 396,115 455,115 Z"
         horiz-adv-x="1060"
         unicode="a" />
      <glyph
         id="glyph858"
         d="M 720,1253 L 720,0 530,0 530,1253 46,1253 46,1409 1204,1409 1204,1253 720,1253 Z"
         horiz-adv-x="1192"
         unicode="T" />
      <glyph
         id="glyph860"
         d="M 1272,389 C 1272,259 1221,158 1120,87 1018,16 875,-20 690,-20 347,-20 148,99 93,338 L 278,375 C 299,290 345,228 414,189 483,149 578,129 697,129 820,129 916,150 983,193 1050,235 1083,297 1083,379 1083,425 1073,462 1052,491 1031,520 1001,543 963,562 925,581 880,596 827,609 774,622 716,635 652,650 541,675 456,699 399,724 341,749 295,776 262,807 229,837 203,872 186,913 168,954 159,1000 159,1053 159,1174 205,1267 298,1332 390,1397 522,1430 694,1430 854,1430 976,1406 1061,1357 1146,1308 1205,1224 1239,1106 L 1051,1073 C 1030,1148 991,1202 933,1236 875,1269 795,1286 692,1286 579,1286 493,1267 434,1230 375,1193 345,1137 345,1063 345,1020 357,984 380,956 403,927 436,903 479,884 522,864 609,840 738,811 781,801 825,791 868,781 911,770 952,758 991,744 1030,729 1067,712 1102,693 1136,674 1166,650 1191,622 1216,594 1236,561 1251,523 1265,485 1272,440 1272,389 Z"
         horiz-adv-x="1192"
         unicode="S" />
      <glyph
         id="glyph862"
         d="M 1164,0 L 798,585 359,585 359,0 168,0 168,1409 831,1409 C 990,1409 1112,1374 1199,1303 1285,1232 1328,1133 1328,1006 1328,901 1298,813 1237,742 1176,671 1091,626 984,607 L 1384,0 1164,0 Z M 1136,1004 C 1136,1086 1108,1149 1053,1192 997,1235 917,1256 812,1256 L 359,1256 359,736 820,736 C 921,736 999,760 1054,807 1109,854 1136,919 1136,1004 Z"
         horiz-adv-x="1244"
         unicode="R" />
      <glyph
         id="glyph864"
         d="M 1258,985 C 1258,852 1215,746 1128,667 1041,588 922,549 773,549 L 359,549 359,0 168,0 168,1409 761,1409 C 919,1409 1041,1372 1128,1298 1215,1224 1258,1120 1258,985 Z M 1066,983 C 1066,1165 957,1256 738,1256 L 359,1256 359,700 746,700 C 959,700 1066,794 1066,983 Z"
         horiz-adv-x="1086"
         unicode="P" />
      <glyph
         id="glyph866"
         d="M 1366,0 L 1366,940 C 1366,1044 1369,1144 1375,1240 1342,1121 1313,1027 1287,960 L 923,0 789,0 420,960 364,1130 331,1240 334,1129 338,940 338,0 168,0 168,1409 419,1409 794,432 C 807,393 820,351 833,306 845,261 853,228 857,208 862,235 874,275 891,330 908,384 919,418 925,432 L 1293,1409 1538,1409 1538,0 1366,0 Z"
         horiz-adv-x="1350"
         unicode="M" />
      <glyph
         id="glyph868"
         d="M 189,0 L 189,1409 380,1409 380,0 189,0 Z"
         horiz-adv-x="213"
         unicode="I" />
      <glyph
         id="glyph870"
         d="M 1121,0 L 1121,653 359,653 359,0 168,0 168,1409 359,1409 359,813 1121,813 1121,1409 1312,1409 1312,0 1121,0 Z"
         horiz-adv-x="1165"
         unicode="H" />
      <glyph
         id="glyph872"
         d="M 168,0 L 168,1409 1237,1409 1237,1253 359,1253 359,801 1177,801 1177,647 359,647 359,156 1278,156 1278,0 168,0 Z"
         horiz-adv-x="1112"
         unicode="E" />
      <glyph
         id="glyph874"
         d="M 1381,719 C 1381,574 1353,447 1296,338 1239,229 1159,145 1055,87 951,29 831,0 695,0 L 168,0 168,1409 634,1409 C 873,1409 1057,1349 1187,1230 1316,1110 1381,940 1381,719 Z M 1189,719 C 1189,894 1141,1027 1046,1119 950,1210 811,1256 630,1256 L 359,1256 359,153 673,153 C 776,153 867,176 946,221 1024,266 1084,332 1126,417 1168,502 1189,603 1189,719 Z"
         horiz-adv-x="1244"
         unicode="D" />
      <glyph
         id="glyph876"
         d="M 1167,0 L 1006,412 364,412 202,0 4,0 579,1409 796,1409 1362,0 1167,0 Z M 685,1265 L 676,1237 C 659,1182 635,1111 602,1024 L 422,561 949,561 768,1026 C 749,1072 731,1124 712,1182 L 685,1265 Z"
         horiz-adv-x="1350"
         unicode="A" />
      <glyph
         id="glyph878"
         horiz-adv-x="556"
         unicode=" " />
    </font>
    <font
       horiz-adv-x="2048"
       id="EmbeddedFont_2"
       horiz-origin-x="0"
       horiz-origin-y="0"
       vert-origin-x="45"
       vert-origin-y="90"
       vert-adv-y="90">
      <font-face
         id="font-face883"
         descent="423"
         ascent="1852"
         font-style="normal"
         font-weight="bold"
         units-per-em="2048"
         font-family="Liberation Sans embedded" />
      <missing-glyph
         id="missing-glyph885"
         d="M 0,0 L 2047,0 2047,2047 0,2047 0,0 Z"
         horiz-adv-x="2048" />
      <glyph
         id="glyph887"
         d="M 283,-425 C 216,-425 157,-421 106,-412 L 106,-212 C 141,-217 174,-220 203,-220 243,-220 276,-214 303,-201 329,-188 353,-167 374,-138 395,-109 418,-59 444,11 L 16,1082 313,1082 483,575 C 510,502 543,391 584,241 L 609,336 674,571 834,1082 1128,1082 700,-57 C 643,-196 583,-292 522,-345 460,-398 380,-425 283,-425 Z"
         horiz-adv-x="1112"
         unicode="y" />
      <glyph
         id="glyph889"
         d="M 1313,0 L 1016,0 844,660 C 836,690 820,764 797,882 L 745,658 571,0 274,0 -6,1082 258,1082 436,255 450,329 475,446 645,1082 946,1082 1112,446 C 1121,411 1135,348 1153,255 L 1181,387 1337,1082 1597,1082 1313,0 Z"
         horiz-adv-x="1694"
         unicode="w" />
      <glyph
         id="glyph891"
         d="M 731,0 L 395,0 8,1082 305,1082 494,477 C 504,444 528,360 565,227 572,254 585,302 606,371 627,440 703,677 836,1082 L 1130,1082 731,0 Z"
         horiz-adv-x="1086"
         unicode="v" />
      <glyph
         id="glyph893"
         d="M 408,1082 L 408,475 C 408,285 472,190 600,190 668,190 723,219 765,278 806,336 827,411 827,502 L 827,1082 1108,1082 1108,242 C 1108,150 1111,69 1116,0 L 848,0 C 840,96 836,168 836,215 L 831,215 C 794,133 746,73 689,36 631,-1 562,-20 483,-20 368,-20 280,15 219,86 158,156 127,259 127,395 L 127,1082 408,1082 Z"
         horiz-adv-x="1006"
         unicode="u" />
      <glyph
         id="glyph895"
         d="M 420,-18 C 337,-18 274,5 229,50 184,95 162,163 162,254 L 162,892 25,892 25,1082 176,1082 264,1336 440,1336 440,1082 645,1082 645,892 440,892 440,330 C 440,277 450,239 470,214 490,189 521,176 563,176 585,176 616,181 657,190 L 657,16 C 588,-7 509,-18 420,-18 Z"
         horiz-adv-x="636"
         unicode="t" />
      <glyph
         id="glyph897"
         d="M 1055,316 C 1055,211 1012,129 927,70 841,10 722,-20 571,-20 422,-20 309,4 230,51 151,98 98,171 72,270 L 319,307 C 333,256 357,219 392,198 426,177 486,166 571,166 650,166 707,176 743,196 779,216 797,247 797,290 797,325 783,352 754,373 725,393 675,410 606,424 447,455 340,485 285,512 230,539 188,574 159,617 130,660 115,712 115,775 115,878 155,959 235,1017 314,1074 427,1103 573,1103 702,1103 805,1078 884,1028 962,978 1011,906 1030,811 L 781,785 C 773,829 753,862 722,884 691,905 641,916 573,916 506,916 456,908 423,891 390,874 373,845 373,805 373,774 386,749 412,731 437,712 480,697 541,685 626,668 701,650 767,632 832,613 885,591 925,566 964,541 996,508 1020,469 1043,429 1055,378 1055,316 Z"
         horiz-adv-x="1006"
         unicode="s" />
      <glyph
         id="glyph899"
         d="M 143,0 L 143,828 C 143,887 142,937 141,977 139,1016 137,1051 135,1082 L 403,1082 C 405,1070 408,1034 411,973 414,912 416,871 416,851 L 420,851 C 447,927 472,981 493,1012 514,1043 540,1066 569,1081 598,1096 635,1103 679,1103 715,1103 744,1098 766,1088 L 766,853 C 721,863 681,868 646,868 576,868 522,840 483,783 444,726 424,642 424,531 L 424,0 143,0 Z"
         horiz-adv-x="636"
         unicode="r" />
      <glyph
         id="glyph901"
         d="M 84,540 C 84,719 121,857 194,956 267,1054 369,1103 502,1103 659,1103 768,1038 829,908 829,939 831,973 835,1011 838,1048 841,1072 844,1082 L 1114,1082 C 1110,1010 1108,927 1108,833 L 1108,-425 829,-425 829,25 834,180 832,180 C 770,47 652,-20 479,-20 353,-20 256,29 187,128 118,226 84,363 84,540 Z M 831,546 C 831,661 812,751 773,815 734,878 677,910 602,910 452,910 377,787 377,540 377,295 451,172 600,172 673,172 730,205 771,270 811,335 831,427 831,546 Z"
         horiz-adv-x="1033"
         unicode="q" />
      <glyph
         id="glyph903"
         d="M 1171,542 C 1171,367 1122,229 1025,130 928,30 793,-20 621,-20 452,-20 320,30 224,130 128,230 80,367 80,542 80,716 128,853 224,953 320,1052 454,1102 627,1102 804,1102 939,1054 1032,958 1125,861 1171,723 1171,542 Z M 877,542 C 877,671 856,764 814,822 772,880 711,909 631,909 460,909 375,787 375,542 375,421 396,330 438,267 479,204 539,172 618,172 791,172 877,295 877,542 Z"
         horiz-adv-x="1086"
         unicode="o" />
      <glyph
         id="glyph905"
         d="M 844,0 L 844,607 C 844,797 780,892 651,892 583,892 528,863 487,805 445,746 424,671 424,580 L 424,0 143,0 143,840 C 143,898 142,946 141,983 139,1020 137,1053 135,1082 L 403,1082 C 405,1069 408,1036 411,981 414,926 416,888 416,867 L 420,867 C 458,950 506,1010 563,1047 620,1084 689,1103 768,1103 883,1103 971,1068 1032,997 1093,926 1124,823 1124,687 L 1124,0 844,0 Z"
         horiz-adv-x="1007"
         unicode="n" />
      <glyph
         id="glyph907"
         d="M 143,0 L 143,1484 424,1484 424,0 143,0 Z"
         horiz-adv-x="292"
         unicode="l" />
      <glyph
         id="glyph909"
         d="M 143,1277 L 143,1484 424,1484 424,1277 143,1277 Z M 143,0 L 143,1082 424,1082 424,0 143,0 Z"
         horiz-adv-x="292"
         unicode="i" />
      <glyph
         id="glyph911"
         d="M 420,866 C 458,949 506,1009 563,1046 620,1083 689,1102 768,1102 883,1102 971,1067 1032,996 1093,925 1124,822 1124,686 L 1124,0 844,0 844,606 C 844,796 780,891 651,891 583,891 528,862 487,804 445,745 424,670 424,579 L 424,0 143,0 143,1484 424,1484 424,1079 C 424,1006 421,935 416,866 L 420,866 Z"
         horiz-adv-x="1007"
         unicode="h" />
      <glyph
         id="glyph913"
         d="M 596,-434 C 464,-434 358,-409 278,-358 197,-308 148,-236 129,-143 L 410,-110 C 420,-153 442,-187 475,-212 508,-237 551,-249 604,-249 682,-249 739,-225 775,-177 811,-129 829,-58 829,37 L 829,94 831,201 829,201 C 767,68 651,2 481,2 355,2 257,49 188,144 119,239 84,374 84,550 84,727 120,863 191,959 262,1055 366,1103 502,1103 659,1103 768,1038 829,908 L 834,908 C 834,931 836,963 839,1003 842,1043 845,1069 848,1082 L 1114,1082 C 1110,1010 1108,927 1108,832 L 1108,33 C 1108,-121 1064,-237 977,-316 890,-395 763,-434 596,-434 Z M 831,556 C 831,667 811,754 772,817 732,879 675,910 602,910 452,910 377,790 377,550 377,315 451,197 600,197 675,197 732,228 772,291 811,353 831,441 831,556 Z"
         horiz-adv-x="1033"
         unicode="g" />
      <glyph
         id="glyph915"
         d="M 473,892 L 473,0 193,0 193,892 35,892 35,1082 193,1082 193,1195 C 193,1293 219,1366 271,1413 323,1460 402,1484 508,1484 561,1484 620,1479 686,1468 L 686,1287 C 659,1293 631,1296 604,1296 556,1296 522,1287 503,1268 483,1249 473,1215 473,1167 L 473,1082 686,1082 686,892 473,892 Z"
         horiz-adv-x="689"
         unicode="f" />
      <glyph
         id="glyph917"
         d="M 586,-20 C 423,-20 298,28 211,125 124,221 80,361 80,546 80,725 124,862 213,958 302,1054 427,1102 590,1102 745,1102 864,1051 946,948 1028,845 1069,694 1069,495 L 1069,487 375,487 C 375,382 395,302 434,249 473,195 528,168 600,168 699,168 762,211 788,297 L 1053,274 C 976,78 821,-20 586,-20 Z M 586,925 C 520,925 469,902 434,856 398,810 379,746 377,663 L 797,663 C 792,750 771,816 734,860 697,903 648,925 586,925 Z"
         horiz-adv-x="1007"
         unicode="e" />
      <glyph
         id="glyph919"
         d="M 844,0 C 841,10 838,35 835,76 831,116 829,149 829,176 L 825,176 C 764,45 649,-20 479,-20 353,-20 256,29 187,128 118,226 84,363 84,540 84,719 120,858 193,956 265,1053 367,1102 500,1102 577,1102 643,1086 699,1054 754,1022 797,974 827,911 L 829,911 827,1089 827,1484 1108,1484 1108,236 C 1108,169 1111,91 1116,0 L 844,0 Z M 831,547 C 831,664 812,754 773,817 734,880 676,911 600,911 525,911 469,881 432,820 395,759 377,665 377,540 377,295 451,172 598,172 672,172 729,205 770,270 811,335 831,427 831,547 Z"
         horiz-adv-x="1033"
         unicode="d" />
      <glyph
         id="glyph921"
         d="M 594,-20 C 430,-20 303,29 214,127 125,224 80,360 80,535 80,714 125,853 215,953 305,1052 433,1102 598,1102 725,1102 831,1070 914,1006 997,942 1050,854 1071,741 L 788,727 C 780,782 760,827 728,860 696,893 651,909 592,909 447,909 375,788 375,546 375,297 449,172 596,172 649,172 694,189 730,223 766,256 788,306 797,373 L 1079,360 C 1069,286 1043,220 1000,162 957,104 900,59 830,28 760,-4 681,-20 594,-20 Z"
         horiz-adv-x="1007"
         unicode="c" />
      <glyph
         id="glyph923"
         d="M 393,-20 C 288,-20 207,9 148,66 89,123 60,203 60,306 60,418 97,503 170,562 243,621 348,651 487,652 L 720,656 720,711 C 720,782 708,834 683,869 658,903 618,920 562,920 510,920 472,908 448,885 423,861 408,822 402,767 L 109,781 C 127,886 175,966 254,1021 332,1075 439,1102 574,1102 711,1102 816,1068 890,1001 964,934 1001,838 1001,714 L 1001,320 C 1001,259 1008,218 1022,195 1035,172 1058,160 1090,160 1111,160 1132,162 1152,166 L 1152,14 C 1135,10 1120,6 1107,3 1094,0 1080,-3 1067,-5 1054,-7 1040,-9 1025,-10 1010,-11 992,-12 972,-12 901,-12 849,5 816,40 782,75 762,126 755,193 L 749,193 C 670,51 552,-20 393,-20 Z M 720,501 L 576,499 C 511,496 464,489 437,478 410,466 389,448 375,424 360,400 353,368 353,328 353,277 365,239 389,214 412,189 444,176 483,176 527,176 567,188 604,212 640,236 668,269 689,312 710,354 720,399 720,446 L 720,501 Z"
         horiz-adv-x="1112"
         unicode="a" />
      <glyph
         id="glyph925"
         d="M 1105,0 L 778,535 432,535 432,0 137,0 137,1409 841,1409 C 1009,1409 1139,1373 1230,1301 1321,1228 1367,1124 1367,989 1367,890 1339,805 1283,734 1227,662 1151,615 1056,592 L 1437,0 1105,0 Z M 1070,977 C 1070,1112 983,1180 810,1180 L 432,1180 432,764 818,764 C 901,764 963,783 1006,820 1049,857 1070,910 1070,977 Z"
         horiz-adv-x="1324"
         unicode="R" />
      <glyph
         id="glyph927"
         d="M 1296,963 C 1296,872 1275,791 1234,720 1193,649 1134,594 1057,555 980,516 888,496 782,496 L 432,496 432,0 137,0 137,1409 770,1409 C 939,1409 1069,1370 1160,1293 1251,1215 1296,1105 1296,963 Z M 999,958 C 999,1106 912,1180 737,1180 L 432,1180 432,723 745,723 C 826,723 889,743 933,784 977,824 999,882 999,958 Z"
         horiz-adv-x="1165"
         unicode="P" />
      <glyph
         id="glyph929"
         d="M 1507,711 C 1507,564 1478,435 1420,324 1362,213 1279,128 1171,69 1063,10 937,-20 793,-20 572,-20 398,45 273,176 147,306 84,484 84,711 84,937 147,1113 272,1240 397,1367 572,1430 795,1430 1018,1430 1193,1366 1319,1238 1444,1110 1507,934 1507,711 Z M 1206,711 C 1206,863 1170,982 1098,1069 1026,1155 925,1198 795,1198 663,1198 561,1155 489,1070 417,984 381,864 381,711 381,556 418,435 492,346 565,257 666,212 793,212 925,212 1027,255 1099,342 1170,429 1206,552 1206,711 Z"
         horiz-adv-x="1430"
         unicode="O" />
      <glyph
         id="glyph931"
         d="M 995,0 L 381,1085 C 393,980 399,895 399,831 L 399,0 137,0 137,1409 474,1409 1097,315 C 1085,416 1079,507 1079,590 L 1079,1409 1341,1409 1341,0 995,0 Z"
         horiz-adv-x="1218"
         unicode="N" />
      <glyph
         id="glyph933"
         d="M 137,0 L 137,1409 432,1409 432,228 1188,228 1188,0 137,0 Z"
         horiz-adv-x="1060"
         unicode="L" />
      <glyph
         id="glyph935"
         d="M 137,0 L 137,1409 432,1409 432,0 137,0 Z"
         horiz-adv-x="319"
         unicode="I" />
      <glyph
         id="glyph937"
         d="M 1046,0 L 1046,604 432,604 432,0 137,0 137,1409 432,1409 432,848 1046,848 1046,1409 1341,1409 1341,0 1046,0 Z"
         horiz-adv-x="1218"
         unicode="H" />
      <glyph
         id="glyph939"
         d="M 137,0 L 137,1409 1245,1409 1245,1181 432,1181 432,827 1184,827 1184,599 432,599 432,228 1286,228 1286,0 137,0 Z"
         horiz-adv-x="1139"
         unicode="E" />
      <glyph
         id="glyph941"
         d="M 1386,402 C 1386,274 1338,175 1242,105 1146,35 1013,0 842,0 L 137,0 137,1409 782,1409 C 954,1409 1084,1379 1173,1320 1261,1260 1305,1172 1305,1055 1305,975 1283,908 1239,853 1194,798 1127,760 1036,741 1150,728 1237,692 1297,634 1356,575 1386,498 1386,402 Z M 1008,1015 C 1008,1078 988,1123 948,1150 907,1177 847,1190 768,1190 L 432,1190 432,841 770,841 C 853,841 914,856 952,885 989,914 1008,957 1008,1015 Z M 1090,425 C 1090,557 995,623 806,623 L 432,623 432,219 817,219 C 912,219 981,236 1025,271 1068,305 1090,356 1090,425 Z"
         horiz-adv-x="1271"
         unicode="B" />
      <glyph
         id="glyph943"
         d="M 1133,0 L 1008,360 471,360 346,0 51,0 565,1409 913,1409 1425,0 1133,0 Z M 739,1192 L 733,1170 C 726,1146 718,1119 709,1088 700,1057 642,889 537,582 L 942,582 803,987 760,1123 739,1192 Z"
         horiz-adv-x="1324"
         unicode="A" />
      <glyph
         id="glyph945"
         d="M 492,1135 L 727,1239 795,1042 545,981 731,768 547,647 401,899 252,647 66,770 256,981 6,1042 74,1239 313,1135 295,1409 510,1409 492,1135 Z"
         horiz-adv-x="795"
         unicode="*" />
      <glyph
         id="glyph947"
         horiz-adv-x="556"
         unicode=" " />
    </font>
</defs>
</svg>
