<svg xmlns="http://www.w3.org/2000/svg">
<defs>
<font
   id="FontID0"
   fullFontName="Arial"
   fontVariant="normal"
   fontWeight="400"
   horiz-origin-x="0"
   horiz-origin-y="0"
   horiz-adv-x="90"
   vert-origin-x="45"
   vert-origin-y="90"
   vert-adv-y="90">
	<font-face
   font-family="Arial"
   id="font-face2431">
	</font-face>
   <missing-glyph
   id="missing-glyph2433"><path
     d="M0 0z"
     id="path2435" /></missing-glyph>
   <glyph
   unicode=" "
   horiz-adv-x="276"
   id="glyph2437"><path
     d="M59 0"
     id="path2439" /></glyph>
   <glyph
   unicode="F"
   horiz-adv-x="610"
   id="glyph2441"><path
     d="M82 0l0 716 481 0 0 -87 -387 0 0 -222 334 0 0 -82 -334 0 0 -325 -94 0z"
     id="path2443" /></glyph>
   <glyph
   unicode="M"
   horiz-adv-x="828"
   id="glyph2445"><path
     d="M74 0l0 716 134 0 180 -508c14,-44 29,-89 29,-104 15,30 15,60 45,119l164 493 120 0 0 -716 -90 0 0 597 -194 -597 -89 0 -209 611 0 -611 -90 0z"
     id="path2447" /></glyph>
   <glyph
   unicode="B"
   horiz-adv-x="667"
   id="glyph2449"><path
     d="M72 0l0 718 271 0c55,0 98,-9 130,-24 32,-14 58,-38 79,-67 17,-29 26,-61 26,-96 0,-29 -6,-58 -23,-84 -18,-29 -41,-49 -76,-67 44,-11 76,-35 99,-64 23,-32 35,-66 35,-110 0,-32 -6,-64 -20,-93 -15,-29 -32,-50 -53,-67 -20,-15 -46,-26 -78,-35 -32,-9 -70,-11 -117,-11l-273 0zm96 415l154 0c44,0 73,3 90,9 26,6 44,17 56,35 11,17 17,38 17,64 0,23 -6,43 -17,61 -9,17 -27,32 -47,38 -23,5 -58,8 -110,8l-143 0 0 -215zm0 -331l177 0c32,0 53,3 64,3 24,6 41,11 56,20 14,9 26,23 37,41 9,17 15,38 15,58 0,29 -9,52 -20,70 -15,20 -35,35 -59,43 -23,6 -58,12 -104,12l-166 0 0 -247z"
     id="path2451" /></glyph>
   <glyph
   unicode="W"
   horiz-adv-x="943"
   id="glyph2453"><path
     d="M201 0l-190 714 99 0 108 -467c12,-51 21,-99 31,-147 17,77 29,120 31,132l137 482 112 0 104 -362c26,-89 43,-173 55,-252 9,46 21,96 36,156l112 458 96 0 -196 -714 -91 0 -151 544c-12,45 -22,74 -22,84 -10,-31 -17,-60 -22,-84l-151 -544 -98 0z"
     id="path2455" /></glyph>
   <glyph
   unicode="S"
   horiz-adv-x="666"
   id="glyph2457"><path
     d="M45 230l89 7c5,-36 14,-65 29,-89 16,-21 40,-41 72,-55 33,-14 69,-22 110,-22 36,0 67,8 96,17 26,12 48,27 62,43 12,20 19,41 19,63 0,21 -7,41 -19,57 -12,17 -33,31 -65,43 -19,8 -62,20 -127,36 -64,15 -112,29 -139,44 -33,19 -57,40 -74,67 -17,26 -27,55 -27,88 0,36 10,70 32,101 19,31 50,55 88,72 41,17 84,24 132,24 53,0 101,-7 142,-24 38,-17 69,-43 93,-77 22,-33 34,-69 34,-112l-91 -8c-5,46 -22,82 -48,104 -29,24 -70,36 -125,36 -58,0 -101,-12 -125,-34 -26,-19 -40,-46 -40,-74 0,-27 9,-48 28,-65 17,-17 65,-34 142,-50 77,-17 129,-34 158,-46 43,-19 72,-43 94,-72 19,-31 28,-65 28,-103 0,-38 -9,-74 -33,-108 -22,-34 -53,-60 -94,-77 -40,-18 -86,-27 -136,-27 -65,0 -120,9 -163,27 -44,19 -80,46 -104,84 -24,39 -38,82 -38,130z"
     id="path2459" /></glyph>
   <glyph
   unicode="l"
   horiz-adv-x="221"
   id="glyph2461"><path
     d="M59 0l0 716 90 0 0 -716 -90 0z"
     id="path2463" /></glyph>
   <glyph
   unicode="m"
   horiz-adv-x="832"
   id="glyph2465"><path
     d="M64 0l0 517 79 0 0 -71c17,24 39,45 65,59 29,17 58,24 94,24 38,0 69,-7 93,-24 24,-16 43,-38 53,-67 41,60 93,91 158,91 53,0 91,-14 120,-43 26,-28 41,-72 41,-132l0 -354 -86 0 0 326c0,36 -3,60 -10,76 -5,15 -14,27 -31,36 -15,10 -31,15 -53,15 -36,0 -65,-12 -91,-36 -24,-24 -36,-63 -36,-115l0 -302 -86 0 0 335c0,41 -8,70 -22,89 -14,19 -38,29 -70,29 -26,0 -47,-5 -69,-19 -22,-12 -36,-32 -46,-58 -9,-24 -14,-60 -14,-108l0 -268 -89 0z"
     id="path2467" /></glyph>
   <glyph
   unicode="g"
   horiz-adv-x="553"
   id="glyph2469"><path
     d="M44 -44l90 -15c0,-15 15,-45 30,-60 15,-15 44,-15 89,-15 45,0 75,0 90,15 30,30 45,45 45,75 14,15 14,58 14,118 -44,-45 -89,-74 -149,-74 -74,0 -119,29 -164,74 -45,60 -60,120 -60,179 0,60 15,105 30,149 15,30 45,75 75,90 30,30 74,30 119,30 60,0 120,-15 149,-75l0 75 90 0 0 -448c0,-88 -15,-148 -30,-178 -15,-30 -45,-60 -74,-75 -45,-15 -90,-29 -135,-29 -59,0 -104,14 -149,44 -45,30 -60,60 -60,120zm75 312c0,-74 15,-119 45,-149 30,-30 59,-45 104,-45 30,0 75,15 90,45 30,30 44,75 44,149 0,60 -14,105 -44,134 -30,30 -60,45 -90,45 -45,0 -74,-15 -104,-45 -30,-29 -45,-74 -45,-134z"
     id="path2471" /></glyph>
   <glyph
   unicode="h"
   horiz-adv-x="553"
   id="glyph2473"><path
     d="M59 0l0 716 90 0 0 -254c45,45 89,60 164,60 30,0 60,0 89,-15 30,-15 60,-45 60,-60 15,-30 30,-74 30,-119l0 -328 -90 0 0 328c0,45 -14,74 -29,89 -15,30 -45,30 -90,30 -15,0 -45,0 -75,-15 -14,-15 -29,-30 -44,-59 0,-15 -15,-45 -15,-90l0 -283 -90 0z"
     id="path2475" /></glyph>
   <glyph
   unicode="c"
   horiz-adv-x="497"
   id="glyph2477"><path
     d="M402 194l90 -15c-15,-60 -45,-105 -75,-135 -44,-44 -89,-58 -149,-58 -60,0 -119,28 -164,73 -45,45 -60,105 -60,194 0,60 0,105 15,149 30,45 60,75 90,90 45,30 74,30 119,30 60,0 105,-15 149,-45 30,-15 45,-60 60,-119l-89 0c0,30 -15,59 -30,74 -30,15 -45,30 -75,30 -45,0 -89,-30 -119,-60 -15,-29 -30,-74 -30,-149 0,-59 15,-119 30,-149 30,-30 59,-45 104,-45 45,0 60,15 90,30 30,30 44,60 44,105z"
     id="path2479" /></glyph>
   <glyph
   unicode="i"
   horiz-adv-x="221"
   id="glyph2481"><path
     d="M59 611l0 105 90 0 0 -105 -90 0zm0 -611l0 522 90 0 0 -522 -90 0z"
     id="path2483" /></glyph>
   <glyph
   unicode="f"
   horiz-adv-x="277"
   id="glyph2485"><path
     d="M86 0l0 450 -77 0 0 67 77 0 0 56c0,36 2,60 9,76 10,24 24,44 46,56 22,14 50,21 89,21 24,0 52,-2 81,-7l-12 -77c-19,3 -36,5 -52,5 -27,0 -46,-7 -56,-17 -12,-12 -16,-33 -16,-65l0 -48 100 0 0 -67 -100 0 0 -450 -89 0z"
     id="path2487" /></glyph>
   <glyph
   unicode="o"
   horiz-adv-x="555"
   id="glyph2489"><path
     d="M33 258c0,96 26,168 79,214 46,38 99,57 163,57 72,0 130,-24 175,-69 46,-48 67,-113 67,-194 0,-67 -9,-120 -28,-159 -22,-36 -51,-67 -89,-88 -38,-19 -79,-30 -125,-30 -72,0 -132,22 -175,68 -45,48 -67,115 -67,201zm89 0c0,-67 14,-115 45,-148 29,-34 65,-51 108,-51 43,0 79,17 111,51 28,33 43,84 43,151 0,65 -15,113 -46,146 -29,34 -65,51 -108,51 -43,0 -79,-17 -108,-51 -31,-33 -45,-81 -45,-149z"
     id="path2491" /></glyph>
   <glyph
   unicode="a"
   horiz-adv-x="555"
   id="glyph2493"><path
     d="M402 64c-31,-29 -62,-48 -93,-60 -29,-11 -62,-15 -96,-15 -58,0 -101,13 -132,39 -31,29 -46,65 -46,108 0,27 5,48 17,70 12,21 27,38 46,50 19,12 41,22 65,29 16,5 43,9 76,14 72,7 123,17 156,29 3,12 3,19 3,24 0,36 -10,60 -27,74 -21,22 -55,32 -98,32 -43,0 -72,-8 -94,-22 -19,-14 -33,-41 -43,-77l-86 10c9,38 21,67 38,91 19,22 46,38 79,50 34,12 72,19 118,19 43,0 79,-4 108,-16 26,-10 48,-22 60,-39 14,-16 21,-36 29,-60 2,-14 2,-40 2,-81l0 -115c0,-84 2,-135 7,-156 3,-22 10,-43 22,-62l-91 0c-10,19 -15,38 -20,64zm-7 194c-31,-11 -79,-23 -141,-31 -36,-7 -63,-12 -77,-19 -17,-5 -26,-14 -36,-29 -7,-12 -12,-26 -12,-40 0,-24 10,-44 26,-58 20,-17 44,-24 80,-24 33,0 62,7 88,22 27,14 46,36 60,60 7,21 12,50 12,88l0 31z"
     id="path2495" /></glyph>
   <glyph
   unicode="b"
   horiz-adv-x="553"
   id="glyph2497"><path
     d="M149 0l-90 0 0 716 90 0 0 -254c45,45 89,60 149,60 30,0 60,0 90,-15 29,-15 44,-30 59,-60 30,-15 45,-45 45,-74 15,-30 15,-75 15,-105 0,-89 -15,-164 -60,-209 -45,-45 -104,-73 -164,-73 -60,0 -104,28 -134,73l0 -59zm0 268c0,-74 0,-119 15,-134 30,-45 74,-75 119,-75 30,0 75,15 105,45 14,45 29,90 29,149 0,75 -15,120 -29,149 -30,30 -60,60 -105,60 -30,0 -75,-30 -89,-60 -30,-29 -45,-74 -45,-134z"
     id="path2499" /></glyph>
   <glyph
   unicode="n"
   horiz-adv-x="553"
   id="glyph2501"><path
     d="M59 0l0 522 90 0 0 -75c30,45 89,75 164,75 30,0 60,0 75,-15 29,-15 44,-30 59,-45 15,-15 30,-30 30,-60 0,-14 0,-44 0,-89l0 -313 -75 0 0 313c0,30 -14,60 -14,75 -15,29 -15,44 -30,44 -30,15 -45,15 -75,15 -30,0 -60,-15 -89,-30 -30,-29 -45,-74 -45,-134l0 -283 -90 0z"
     id="path2503" /></glyph>
   <glyph
   unicode="e"
   horiz-adv-x="555"
   id="glyph2505"><path
     d="M419 168l91 -12c-13,-54 -41,-95 -78,-124 -42,-28 -91,-44 -149,-44 -78,0 -135,24 -181,69 -45,45 -65,111 -65,198 0,86 20,152 65,201 46,50 103,74 177,74 70,0 124,-24 169,-70 45,-49 66,-115 66,-201 0,-4 0,-13 0,-25l-387 0c4,-53 21,-99 49,-128 29,-32 62,-45 107,-45 33,0 58,8 83,25 24,16 41,45 53,82zm-288 140l288 0c-4,45 -12,78 -33,99 -24,33 -61,49 -107,49 -41,0 -74,-12 -103,-41 -24,-25 -41,-62 -45,-107z"
     id="path2507" /></glyph>
   <glyph
   unicode="u"
   horiz-adv-x="555"
   id="glyph2509"><path
     d="M407 0l0 74c-41,-58 -99,-86 -165,-86 -33,0 -61,8 -86,16 -29,12 -45,28 -62,45 -12,16 -20,41 -25,66 -4,16 -4,45 -4,82l0 321 87 0 0 -288c0,-45 0,-78 4,-91 8,-24 16,-41 37,-57 16,-13 37,-17 66,-17 24,0 49,4 74,17 20,16 37,33 49,57 8,21 13,58 13,99l0 280 90 0 0 -518 -78 0z"
     id="path2511" /></glyph>
   <glyph
   unicode="s"
   horiz-adv-x="499"
   id="glyph2513"><path
     d="M31 155l86 12c5,-33 19,-60 41,-79 21,-19 53,-29 93,-29 41,0 70,10 89,24 22,17 31,36 31,60 0,20 -9,34 -26,46 -12,7 -43,19 -91,31 -63,15 -108,29 -132,41 -27,12 -46,29 -58,50 -12,19 -19,43 -19,70 0,21 5,43 17,62 9,22 24,36 43,51 12,9 31,19 55,26 24,7 48,9 75,9 40,0 76,-7 107,-16 32,-12 53,-29 70,-48 14,-22 24,-48 29,-82l-87 -12c-2,29 -14,48 -33,63 -19,16 -46,24 -79,24 -41,0 -70,-8 -87,-22 -16,-12 -26,-29 -26,-46 0,-12 5,-21 12,-31 7,-9 17,-17 34,-24 9,-2 33,-9 76,-21 63,-17 106,-32 130,-41 26,-10 45,-26 60,-46 12,-21 19,-45 19,-76 0,-29 -7,-56 -24,-82 -19,-26 -43,-46 -74,-60 -34,-13 -70,-20 -111,-20 -67,0 -117,13 -153,42 -36,26 -58,69 -67,124z"
     id="path2515" /></glyph>
   <glyph
   unicode="v"
   horiz-adv-x="497"
   id="glyph2517"><path
     d="M208 0l-194 522 90 0 104 -314c15,-29 30,-74 45,-104 0,30 15,60 30,90l119 328 90 0 -209 -522 -75 0z"
     id="path2519" /></glyph>
   <glyph
   unicode="t"
   horiz-adv-x="277"
   id="glyph2521"><path
     d="M256 79l14 -79c-26,-4 -47,-7 -67,-7 -31,0 -57,5 -74,14 -17,12 -29,24 -36,40 -7,17 -12,51 -12,104l0 299 -65 0 0 67 65 0 0 130 89 53 0 -183 86 0 0 -67 -86 0 0 -304c0,-24 0,-41 2,-48 5,-7 10,-12 17,-17 7,-5 17,-7 29,-7 9,0 24,2 38,5z"
     id="path2523" /></glyph>
   <glyph
   unicode="r"
   horiz-adv-x="332"
   id="glyph2525"><path
     d="M65 0l0 518 79 0 0 -78c20,37 37,62 57,70 17,12 33,20 54,20 28,0 61,-12 90,-28l-29 -83c-20,13 -45,21 -65,21 -21,0 -38,-8 -50,-21 -16,-8 -29,-24 -33,-45 -12,-33 -16,-66 -16,-103l0 -271 -87 0z"
     id="path2527" /></glyph>
   <glyph
   unicode="ä"
   horiz-adv-x="555"
   id="glyph2529"><path
     d="M402 64c-31,-29 -62,-48 -93,-60 -29,-11 -62,-15 -96,-15 -58,0 -101,13 -132,39 -31,29 -46,65 -46,108 0,27 5,48 17,70 12,21 27,38 46,50 19,12 41,22 65,29 16,5 43,9 76,14 72,7 123,17 156,29 3,12 3,19 3,24 0,36 -10,60 -27,74 -21,22 -55,32 -98,32 -43,0 -72,-8 -94,-22 -19,-14 -33,-41 -43,-77l-86 10c9,38 21,67 38,91 19,22 46,38 79,50 34,12 72,19 118,19 43,0 79,-4 108,-16 26,-10 48,-22 60,-39 14,-16 21,-36 29,-60 2,-14 2,-40 2,-81l0 -115c0,-84 2,-135 7,-156 3,-22 10,-43 22,-62l-91 0c-10,19 -15,38 -20,64zm-7 194c-31,-11 -79,-23 -141,-31 -36,-7 -63,-12 -77,-19 -17,-5 -26,-14 -36,-29 -7,-12 -12,-26 -12,-40 0,-24 10,-44 26,-58 20,-17 44,-24 80,-24 33,0 62,7 88,22 27,14 46,36 60,60 7,21 12,50 12,88l0 31zm-256 360l0 101 91 0 0 -101 -91 0zm179 0l0 101 94 0 0 -101 -94 0z"
     id="path2531" /></glyph>
  </font>
</defs>
</svg>
