<svg xmlns="http://www.w3.org/2000/svg">
<defs>
<font
   horiz-adv-x="1000"
   id="font2958">
<!-- Copyright 1990, 1991, 1998, 2002 Adobe Systems Incorporated. All Rights Reserved. Gill Sans is a trademark of The Monotype Corporation registered in the US Patent and Trademark Office and may be registered in certain other jurisdictions. -->
<font-face
   font-family="GillSansStd"
   units-per-em="1000"
   underline-position="-100"
   underline-thickness="50"
   id="font-face2960" />
<missing-glyph
   horiz-adv-x="500"
   d="M0,0l500,0l0,700l-500,0M250,395l-170,255l340,0M280,350l170,255l0,-510M80,50l170,255l170,-255M50,605l170,-255l-170,-255z"
   id="missing-glyph2962" />
<glyph
   unicode="A"
   horiz-adv-x="667"
   d="M362,686l-69,0l-293,-686l100,0l86,201l290,0l91,-201l100,0M326,536l110,-247l-212,0z"
   id="glyph2964" />
<glyph
   unicode="Æ"
   horiz-adv-x="896"
   d="M851,682l-445,0l-404,-682l101,0l179,301l191,0l0,-301l389,0l0,88l-291,0l0,213l271,0l0,88l-271,0l0,205l280,0M471,622l2,0l0,-233l-141,0z"
   id="glyph2966" />
<glyph
   unicode="Á"
   horiz-adv-x="667"
   d="M362,686l-69,0l-293,-686l100,0l86,201l290,0l91,-201l100,0M326,536l110,-247l-212,0M345,874l-67,-147l55,0l112,147z"
   id="glyph2968" />
<glyph
   unicode="Â"
   horiz-adv-x="667"
   d="M362,686l-69,0l-293,-686l100,0l86,201l290,0l91,-201l100,0M326,536l110,-247l-212,0M379,877l-93,0l-91,-151l53,0l83,87l87,-87l55,0z"
   id="glyph2970" />
<glyph
   unicode="Ä"
   horiz-adv-x="667"
   d="M362,686l-69,0l-293,-686l100,0l86,201l290,0l91,-201l100,0M326,536l110,-247l-212,0M241,848C215,848 194,828 194,802C194,776 215,755 241,755C267,755 287,776 287,802C287,828 267,848 241,848M427,848C401,848 380,828 380,802C380,776 401,755 427,755C453,755 473,776 473,802C473,828 453,848 427,848z"
   id="glyph2972" />
<glyph
   unicode="À"
   horiz-adv-x="667"
   d="M362,686l-69,0l-293,-686l100,0l86,201l290,0l91,-201l100,0M326,536l110,-247l-212,0M327,874l-100,0l112,-147l55,0z"
   id="glyph2974" />
<glyph
   unicode="Å"
   horiz-adv-x="667"
   d="M362,686l-69,0l-293,-686l100,0l86,201l290,0l91,-201l100,0M326,536l110,-247l-212,0M334,911C283,911 241,869 241,818C241,767 283,725 334,725C385,725 427,767 427,818C427,869 385,911 334,911M334,873C364,873 389,848 389,818C389,788 364,763 334,763C304,763 279,788 279,818C279,848 304,873 334,873z"
   id="glyph2976" />
<glyph
   unicode="Ã"
   horiz-adv-x="667"
   d="M362,686l-69,0l-293,-686l100,0l86,201l290,0l91,-201l100,0M326,536l110,-247l-212,0M442,863C438,836 426,825 406,825C377,825 315,860 265,860C219,860 192,818 187,745l41,0C231,768 242,780 262,780C309,780 346,745 401,745C447,745 480,792 480,863z"
   id="glyph2978" />
<glyph
   unicode="B"
   horiz-adv-x="563"
   d="M75,0l234,0C480,0 543,98 543,182C543,274 481,341 379,360l0,2C450,391 483,437 483,508C483,594 420,682 273,682l-198,0M173,594l90,0C353,594 382,550 382,499C382,426 335,390 238,390l-65,0M173,302l118,0C394,302 442,258 442,196C442,145 411,88 296,88l-123,0z"
   id="glyph2980" />
<glyph
   unicode="C"
   horiz-adv-x="708"
   d="M656,635C563,674 492,691 422,691C205,691 48,539 48,331C48,188 160,-9 416,-9C523,-9 596,16 663,51l0,107C586,108 502,81 425,81C261,81 149,187 149,340C149,490 265,601 421,601C500,601 572,579 656,530z"
   id="glyph2982" />
<glyph
   unicode="Ç"
   horiz-adv-x="708"
   d="M663,158C586,108 502,81 425,81C261,81 149,187 149,340C149,490 265,601 421,601C500,601 572,579 656,530l0,105C563,674 492,691 422,691C205,691 48,539 48,331C48,203 138,32 341,-2l-24,-67C355,-65 375,-77 375,-94C375,-117 338,-127 291,-120l0,-55C379,-188 446,-161 446,-86C446,-55 425,-32 392,-23l4,14C531,-9 596,16 663,51z"
   id="glyph2984" />
<glyph
   unicode="D"
   horiz-adv-x="750"
   d="M76,0l266,0C567,0 704,166 704,341C704,502 593,682 341,682l-265,0M174,594l151,0C516,594 603,478 603,341C603,257 552,88 330,88l-156,0z"
   id="glyph2986" />
<glyph
   unicode="E"
   horiz-adv-x="500"
   d="M462,682l-387,0l0,-682l396,0l0,88l-298,0l0,212l279,0l0,88l-279,0l0,206l289,0z"
   id="glyph2988" />
<glyph
   unicode="É"
   horiz-adv-x="500"
   d="M462,682l-387,0l0,-682l396,0l0,88l-298,0l0,212l279,0l0,88l-279,0l0,206l289,0M262,874l-67,-147l55,0l112,147z"
   id="glyph2990" />
<glyph
   unicode="Ê"
   horiz-adv-x="500"
   d="M462,682l-387,0l0,-682l396,0l0,88l-298,0l0,212l279,0l0,88l-279,0l0,206l289,0M296,877l-93,0l-91,-151l53,0l83,87l87,-87l55,0z"
   id="glyph2992" />
<glyph
   unicode="Ë"
   horiz-adv-x="500"
   d="M462,682l-387,0l0,-682l396,0l0,88l-298,0l0,212l279,0l0,88l-279,0l0,206l289,0M158,848C132,848 111,828 111,802C111,776 132,755 158,755C184,755 204,776 204,802C204,828 184,848 158,848M344,848C318,848 297,828 297,802C297,776 318,755 344,755C370,755 390,776 390,802C390,828 370,848 344,848z"
   id="glyph2994" />
<glyph
   unicode="È"
   horiz-adv-x="500"
   d="M462,682l-387,0l0,-682l396,0l0,88l-298,0l0,212l279,0l0,88l-279,0l0,206l289,0M244,874l-100,0l112,-147l55,0z"
   id="glyph2996" />
<glyph
   unicode="Ð"
   horiz-adv-x="750"
   d="M76,0l266,0C567,0 704,164 704,341C704,514 569,682 341,682l-265,0l0,-297l-80,0l0,-88l80,0M174,88l0,209l193,0l0,88l-193,0l0,209l151,0C516,594 603,478 603,341C603,178 484,88 332,88z"
   id="glyph2998" />
<glyph
   unicode="€"
   horiz-adv-x="610"
   d="M208,444C239,550 299,601 391,601C441,601 479,592 546,564l19,94C498,682 450,691 392,691C255,691 143,593 110,444l-69,0l-13,-76l71,0C98,355 98,344 98,334l0,-20l-57,0l-13,-76l79,0C139,82 242,-9 389,-9C458,-9 508,6 561,41l0,107C504,101 453,81 392,81C300,81 235,136 208,238l252,0l14,76l-279,0l0,26C195,352 195,359 196,368l288,0l14,76z"
   id="glyph3000" />
<glyph
   unicode="F"
   horiz-adv-x="469"
   d="M440,682l-364,0l0,-682l98,0l0,317l266,0l0,88l-266,0l0,189l266,0z"
   id="glyph3002" />
<glyph
   unicode="G"
   horiz-adv-x="740"
   d="M673,336l-229,0l0,-88l131,0l0,-140C528,93 480,81 427,81C265,81 151,188 151,340C151,488 266,601 414,601C496,601 579,578 659,534l0,99C552,678 496,691 416,691C208,691 50,538 50,337C50,137 204,-9 413,-9C508,-9 582,7 673,47z"
   id="glyph3004" />
<glyph
   unicode="H"
   horiz-adv-x="729"
   d="M653,682l-98,0l0,-297l-382,0l0,297l-98,0l0,-682l98,0l0,297l382,0l0,-297l98,0z"
   id="glyph3006" />
<glyph
   unicode="I"
   horiz-adv-x="250"
   d="M174,682l-98,0l0,-682l98,0z"
   id="glyph3008" />
<glyph
   unicode="Í"
   horiz-adv-x="250"
   d="M174,682l-98,0l0,-682l98,0M137,874l-67,-147l55,0l112,147z"
   id="glyph3010" />
<glyph
   unicode="Î"
   horiz-adv-x="250"
   d="M174,682l-98,0l0,-682l98,0M171,877l-93,0l-91,-151l53,0l83,87l87,-87l55,0z"
   id="glyph3012" />
<glyph
   unicode="Ï"
   horiz-adv-x="250"
   d="M174,682l-98,0l0,-682l98,0M33,848C7,848 -14,828 -14,802C-14,776 7,755 33,755C59,755 79,776 79,802C79,828 59,848 33,848M219,848C193,848 172,828 172,802C172,776 193,755 219,755C245,755 265,776 265,802C265,828 245,848 219,848z"
   id="glyph3014" />
<glyph
   unicode="Ì"
   horiz-adv-x="250"
   d="M174,682l-98,0l0,-682l98,0M119,874l-100,0l112,-147l55,0z"
   id="glyph3016" />
<glyph
   unicode="J"
   horiz-adv-x="250"
   d="M174,682l-98,0l0,-661C76,-85 67,-137 -37,-137l-25,0l18,-91C-34,-229 -26,-230 -14,-230C123,-230 174,-135 174,-8z"
   id="glyph3018" />
<glyph
   unicode="K"
   horiz-adv-x="656"
   d="M285,359l297,323l-122,0l-287,-312l0,312l-98,0l0,-682l98,0l0,337l347,-337l135,0z"
   id="glyph3020" />
<glyph
   unicode="L"
   horiz-adv-x="490"
   d="M172,682l-98,0l0,-682l406,0l0,88l-308,0z"
   id="glyph3022" />
<glyph
   unicode="M"
   horiz-adv-x="781"
   d="M709,682l-91,0l-227,-280l-226,280l-92,0l0,-682l98,0l0,531l2,0l210,-264l16,0l210,264l2,0l0,-531l98,0z"
   id="glyph3024" />
<glyph
   unicode="N"
   horiz-adv-x="781"
   d="M706,682l-92,0l0,-528l-462,528l-78,0l0,-682l92,0l0,525l456,-525l84,0z"
   id="glyph3026" />
<glyph
   unicode="Ñ"
   horiz-adv-x="781"
   d="M706,682l-92,0l0,-528l-462,528l-78,0l0,-682l92,0l0,525l456,-525l84,0M499,863C495,836 483,825 463,825C434,825 372,860 322,860C276,860 249,818 244,745l41,0C288,768 299,780 319,780C366,780 403,745 458,745C504,745 537,792 537,863z"
   id="glyph3028" />
<glyph
   unicode="O"
   horiz-adv-x="823"
   d="M45,341C45,156 186,-9 409,-9C640,-9 778,157 778,341C778,531 636,691 411,691C190,691 45,530 45,341M146,341C146,491 259,601 411,601C564,601 677,491 677,341C677,192 564,81 411,81C259,81 146,192 146,341z"
   id="glyph3030" />
<glyph
   unicode="Ó"
   horiz-adv-x="823"
   d="M45,341C45,156 186,-9 409,-9C640,-9 778,157 778,341C778,531 636,691 411,691C190,691 45,530 45,341M146,341C146,491 259,601 411,601C564,601 677,491 677,341C677,192 564,81 411,81C259,81 146,192 146,341M423,874l-67,-147l55,0l112,147z"
   id="glyph3032" />
<glyph
   unicode="Ô"
   horiz-adv-x="823"
   d="M45,341C45,156 186,-9 409,-9C640,-9 778,157 778,341C778,531 636,691 411,691C190,691 45,530 45,341M146,341C146,491 259,601 411,601C564,601 677,491 677,341C677,192 564,81 411,81C259,81 146,192 146,341M457,877l-93,0l-91,-151l53,0l83,87l87,-87l55,0z"
   id="glyph3034" />
<glyph
   unicode="Ö"
   horiz-adv-x="823"
   d="M45,341C45,156 186,-9 409,-9C640,-9 778,157 778,341C778,531 636,691 411,691C190,691 45,530 45,341M146,341C146,491 259,601 411,601C564,601 677,491 677,341C677,192 564,81 411,81C259,81 146,192 146,341M319,848C293,848 272,828 272,802C272,776 293,755 319,755C345,755 365,776 365,802C365,828 345,848 319,848M505,848C479,848 458,828 458,802C458,776 479,755 505,755C531,755 551,776 551,802C551,828 531,848 505,848z"
   id="glyph3036" />
<glyph
   unicode="Ò"
   horiz-adv-x="823"
   d="M45,341C45,156 186,-9 409,-9C640,-9 778,157 778,341C778,531 636,691 411,691C190,691 45,530 45,341M146,341C146,491 259,601 411,601C564,601 677,491 677,341C677,192 564,81 411,81C259,81 146,192 146,341M405,874l-100,0l112,-147l55,0z"
   id="glyph3038" />
<glyph
   unicode="Ø"
   horiz-adv-x="823"
   d="M216,160C172,210 146,268 146,341C146,491 259,601 411,601C471,601 514,586 558,561M198,51C258,11 335,-9 409,-9C640,-9 778,157 778,341C778,436 739,535 669,597l48,56l-46,40l-51,-59C561,672 493,691 411,691C190,691 45,530 45,341C45,241 84,155 153,86l-49,-57l47,-33M605,523C649,478 677,416 677,341C677,192 564,81 411,81C350,81 302,99 261,124z"
   id="glyph3040" />
<glyph
   unicode="Õ"
   horiz-adv-x="823"
   d="M45,341C45,156 186,-9 409,-9C640,-9 778,157 778,341C778,531 636,691 411,691C190,691 45,530 45,341M146,341C146,491 259,601 411,601C564,601 677,491 677,341C677,192 564,81 411,81C259,81 146,192 146,341M520,863C516,836 504,825 484,825C455,825 393,860 343,860C297,860 270,818 265,745l41,0C309,768 320,780 340,780C387,780 424,745 479,745C525,745 558,792 558,863z"
   id="glyph3042" />
<glyph
   unicode="P"
   horiz-adv-x="510"
   d="M70,682l0,-682l98,0l0,295l102,0C428,295 500,379 500,486C500,594 432,682 283,682M168,594l115,0C372,594 399,540 399,490C399,422 352,383 279,383l-111,0z"
   id="glyph3044" />
<glyph
   unicode="Q"
   horiz-adv-x="823"
   d="M754,-52l-3,3C684,-68 616,-52 496,-1l0,1C661,32 780,174 780,339C780,539 625,691 421,691C200,691 45,547 45,341C45,171 162,32 331,0C426,-70 534,-129 666,-139M417,601C568,601 679,487 679,338C679,199 571,81 419,81C237,81 146,202 146,340C146,443 213,601 417,601z"
   id="glyph3046" />
<glyph
   unicode="R"
   horiz-adv-x="604"
   d="M77,682l0,-682l98,0l0,296l41,0C266,296 307,280 397,140l90,-140l117,0C557,65 540,88 511,135C459,220 421,283 359,324C432,353 473,412 473,491C473,609 387,682 249,682M175,598l63,0C333,598 371,559 372,495C373,438 343,384 238,384l-63,0z"
   id="glyph3048" />
<glyph
   unicode="S"
   horiz-adv-x="458"
   d="M399,643C351,675 299,691 247,691C122,691 40,620 40,509C40,322 335,306 335,165C335,127 300,79 224,79C157,79 94,114 44,178l0,-124C101,11 161,-9 235,-9C345,-9 426,69 426,176C426,393 131,391 131,522C131,570 176,603 239,603C285,603 341,587 399,532z"
   id="glyph3050" />
<glyph
   unicode="T"
   horiz-adv-x="604"
   d="M587,682l-570,0l0,-88l236,0l0,-594l98,0l0,594l236,0z"
   id="glyph3052" />
<glyph
   unicode="Þ"
   horiz-adv-x="510"
   d="M70,682l0,-682l98,0l0,147l102,0C428,147 500,231 500,338C500,446 432,534 283,534l-115,0l0,148M168,446l115,0C372,446 399,392 399,342C399,274 352,235 279,235l-111,0z"
   id="glyph3054" />
<glyph
   unicode="U"
   horiz-adv-x="708"
   d="M648,682l-98,0l0,-397C550,221 542,171 507,136C476,105 422,81 347,81C288,81 239,100 200,139C169,170 159,202 159,279l0,403l-98,0l0,-424C61,72 201,-9 345,-9C548,-9 648,101 648,268z"
   id="glyph3056" />
<glyph
   unicode="Ú"
   horiz-adv-x="708"
   d="M648,682l-98,0l0,-397C550,221 542,171 507,136C476,105 422,81 347,81C288,81 239,100 200,139C169,170 159,202 159,279l0,403l-98,0l0,-424C61,72 201,-9 345,-9C548,-9 648,101 648,268M366,874l-67,-147l55,0l112,147z"
   id="glyph3058" />
<glyph
   unicode="Û"
   horiz-adv-x="708"
   d="M648,682l-98,0l0,-397C550,221 542,171 507,136C476,105 422,81 347,81C288,81 239,100 200,139C169,170 159,202 159,279l0,403l-98,0l0,-424C61,72 201,-9 345,-9C548,-9 648,101 648,268M400,877l-93,0l-91,-151l53,0l83,87l87,-87l55,0z"
   id="glyph3060" />
<glyph
   unicode="Ü"
   horiz-adv-x="708"
   d="M648,682l-98,0l0,-397C550,221 542,171 507,136C476,105 422,81 347,81C288,81 239,100 200,139C169,170 159,202 159,279l0,403l-98,0l0,-424C61,72 201,-9 345,-9C548,-9 648,101 648,268M262,848C236,848 215,828 215,802C215,776 236,755 262,755C288,755 308,776 308,802C308,828 288,848 262,848M448,848C422,848 401,828 401,802C401,776 422,755 448,755C474,755 494,776 494,802C494,828 474,848 448,848z"
   id="glyph3062" />
<glyph
   unicode="Ù"
   horiz-adv-x="708"
   d="M648,682l-98,0l0,-397C550,221 542,171 507,136C476,105 422,81 347,81C288,81 239,100 200,139C169,170 159,202 159,279l0,403l-98,0l0,-424C61,72 201,-9 345,-9C548,-9 648,101 648,268M348,874l-100,0l112,-147l55,0z"
   id="glyph3064" />
<glyph
   unicode="V"
   horiz-adv-x="604"
   d="M604,682l-97,0l-204,-479l-205,479l-98,0l295,-688l20,0z"
   id="glyph3066" />
<glyph
   unicode="W"
   horiz-adv-x="1042"
   d="M1041,682l-97,0l-186,-470l-190,470l-93,0l-189,-470l-188,470l-98,0l276,-688l19,0l226,558l224,-558l19,0z"
   id="glyph3068" />
<glyph
   unicode="X"
   horiz-adv-x="708"
   d="M687,682l-118,0l-213,-260l-214,260l-119,0l273,-329l-294,-353l119,0l235,282l232,-282l118,0l-291,353z"
   id="glyph3070" />
<glyph
   unicode="Y"
   horiz-adv-x="604"
   d="M301,447l-183,235l-118,0l253,-321l0,-361l98,0l0,360l253,322l-118,0z"
   id="glyph3072" />
<glyph
   unicode="Ý"
   horiz-adv-x="604"
   d="M301,447l-183,235l-118,0l253,-321l0,-361l98,0l0,360l253,322l-118,0M314,874l-67,-147l55,0l112,147z"
   id="glyph3074" />
<glyph
   unicode="Z"
   horiz-adv-x="646"
   d="M450,594l-434,-594l615,0l0,88l-434,0l434,594l-588,0l0,-88z"
   id="glyph3076" />
<glyph
   unicode="a"
   horiz-adv-x="427"
   d="M411,80C391,65 373,56 364,56C353,56 347,62 347,79l0,231C347,412 275,458 184,458C119,458 70,438 35,397l0,-97C78,351 128,374 177,374C231,374 258,351 258,295l0,-24l-79,-28C107,217 26,190 26,101C26,43 70,-9 136,-9C177,-9 218,6 257,37C265,5 286,-9 325,-9C353,-9 370,-1 411,26M258,91C234,68 208,54 180,54C143,54 116,80 116,117C116,170 182,196 258,222z"
   id="glyph3078" />
<glyph
   unicode="á"
   horiz-adv-x="427"
   d="M411,80C391,65 373,56 364,56C353,56 347,62 347,79l0,231C347,412 275,458 184,458C119,458 70,438 35,397l0,-97C78,351 128,374 177,374C231,374 258,351 258,295l0,-24l-79,-28C107,217 26,190 26,101C26,43 70,-9 136,-9C177,-9 218,6 257,37C265,5 286,-9 325,-9C353,-9 370,-1 411,26M258,91C234,68 208,54 180,54C143,54 116,80 116,117C116,170 182,196 258,222M225,654l-67,-147l55,0l112,147z"
   id="glyph3080" />
<glyph
   unicode="â"
   horiz-adv-x="427"
   d="M411,80C391,65 373,56 364,56C353,56 347,62 347,79l0,231C347,412 275,458 184,458C119,458 70,438 35,397l0,-97C78,351 128,374 177,374C231,374 258,351 258,295l0,-24l-79,-28C107,217 26,190 26,101C26,43 70,-9 136,-9C177,-9 218,6 257,37C265,5 286,-9 325,-9C353,-9 370,-1 411,26M258,91C234,68 208,54 180,54C143,54 116,80 116,117C116,170 182,196 258,222M239,657l-93,0l-91,-151l53,0l83,87l87,-87l55,0z"
   id="glyph3082" />
<glyph
   unicode="´"
   horiz-adv-x="333"
   d="M178,654l-67,-147l55,0l112,147z"
   id="glyph3084" />
<glyph
   unicode="ä"
   horiz-adv-x="427"
   d="M411,80C391,65 373,56 364,56C353,56 347,62 347,79l0,231C347,412 275,458 184,458C119,458 70,438 35,397l0,-97C78,351 128,374 177,374C231,374 258,351 258,295l0,-24l-79,-28C107,217 26,190 26,101C26,43 70,-9 136,-9C177,-9 218,6 257,37C265,5 286,-9 325,-9C353,-9 370,-1 411,26M258,91C234,68 208,54 180,54C143,54 116,80 116,117C116,170 182,196 258,222M101,628C75,628 54,608 54,582C54,556 75,535 101,535C127,535 147,556 147,582C147,608 127,628 101,628M287,628C261,628 240,608 240,582C240,556 261,535 287,535C313,535 333,556 333,582C333,608 313,628 287,628z"
   id="glyph3086" />
<glyph
   unicode="æ"
   horiz-adv-x="667"
   d="M629,128C577,89 536,71 490,71C416,71 351,127 351,243l276,0C633,377 560,458 456,458C411,458 359,434 324,400C295,436 245,458 190,458C130,458 79,437 45,408l0,-107C91,355 134,378 191,378C247,378 267,339 262,268C109,227 35,191 35,106C35,39 84,-9 152,-9C208,-9 266,14 324,61C352,19 413,-9 478,-9C536,-9 589,10 629,39M362,302C378,349 411,378 452,378C507,378 532,354 539,302M262,79C221,55 210,52 187,52C153,52 126,84 126,124C126,167 173,191 262,224z"
   id="glyph3088" />
<glyph
   unicode="à"
   horiz-adv-x="427"
   d="M411,80C391,65 373,56 364,56C353,56 347,62 347,79l0,231C347,412 275,458 184,458C119,458 70,438 35,397l0,-97C78,351 128,374 177,374C231,374 258,351 258,295l0,-24l-79,-28C107,217 26,190 26,101C26,43 70,-9 136,-9C177,-9 218,6 257,37C265,5 286,-9 325,-9C353,-9 370,-1 411,26M258,91C234,68 208,54 180,54C143,54 116,80 116,117C116,170 182,196 258,222M187,654l-100,0l112,-147l55,0z"
   id="glyph3090" />
<glyph
   unicode="&amp;"
   horiz-adv-x="625"
   d="M495,339C480,305 450,257 422,229l-96,110C414,401 451,455 451,521C451,604 383,669 287,669C181,669 112,607 112,512C112,454 149,396 189,354C94,299 28,235 28,153C28,62 107,-9 200,-9C262,-9 331,16 416,93l78,-93l126,0l-138,160C533,217 574,284 593,339M356,161C309,114 260,81 210,81C166,81 129,114 126,153C126,206 169,241 245,289M208,521C208,558 240,586 282,586C327,586 360,556 360,516C360,481 344,451 271,405C242,433 208,479 208,521z"
   id="glyph3092" />
<glyph
   unicode="å"
   horiz-adv-x="427"
   d="M411,80C391,65 373,56 364,56C353,56 347,62 347,79l0,231C347,412 275,458 184,458C119,458 70,438 35,397l0,-97C78,351 128,374 177,374C231,374 258,351 258,295l0,-24l-79,-28C107,217 26,190 26,101C26,43 70,-9 136,-9C177,-9 218,6 257,37C265,5 286,-9 325,-9C353,-9 370,-1 411,26M258,91C234,68 208,54 180,54C143,54 116,80 116,117C116,170 182,196 258,222M194,691C143,691 101,649 101,598C101,547 143,505 194,505C245,505 287,547 287,598C287,649 245,691 194,691M194,653C224,653 249,628 249,598C249,568 224,543 194,543C164,543 139,568 139,598C139,628 164,653 194,653z"
   id="glyph3094" />
<glyph
   unicode="^"
   horiz-adv-x="469"
   d="M116,291l118,292l120,-292l89,0l-173,391l-71,0l-173,-391z"
   id="glyph3096" />
<glyph
   unicode="~"
   horiz-adv-x="584"
   d="M25,198C73,235 118,265 167,265C204,265 246,246 289,227C331,208 375,189 414,189C466,189 519,218 560,253l0,83C517,301 464,269 420,269C383,269 342,288 300,307C258,326 215,345 174,345C120,345 68,317 25,281z"
   id="glyph3098" />
<glyph
   unicode="*"
   horiz-adv-x="417"
   d="M177,513C174,506 173,500 176,492l-127,-44C24,439 -1,419 15,391C31,364 63,375 81,391l101,88C187,474 194,470 201,467l-25,-131C171,309 176,279 208,278C240,279 246,312 241,336l-25,131C223,469 229,472 236,477l100,-87C356,373 386,362 402,389C418,417 392,439 369,447l-125,43C245,499 246,507 244,513l125,43C394,565 419,585 403,613C387,641 355,629 337,613l-100,-87C232,532 225,536 217,538l25,130C247,694 242,726 210,726C178,726 172,692 177,668l25,-130C197,537 188,532 182,527l-100,87C62,632 32,642 16,615C0,587 26,565 49,557z"
   id="glyph3100" />
<glyph
   unicode="@"
   horiz-adv-x="1010"
   d="M891,9C832,-75 716,-138 549,-138C282,-138 127,0 127,237C127,479 299,658 533,658C734,658 883,526 883,349C883,168 736,78 696,78C666,78 656,102 664,138l82,377l-88,0l-17,-76C606,497 554,529 494,529C366,529 240,376 240,220C240,92 316,-1 419,-1C468,-1 523,29 567,80C567,25 600,-2 664,-2C813,-2 956,170 956,348C956,569 780,729 537,729C185,729 54,440 54,229C54,-44 241,-210 548,-210C751,-210 894,-134 981,9M331,213C331,338 414,458 500,458C569,458 613,403 613,316C613,193 526,71 439,71C375,71 331,128 331,213z"
   id="glyph3102" />
<glyph
   unicode="ã"
   horiz-adv-x="427"
   d="M411,80C391,65 373,56 364,56C353,56 347,62 347,79l0,231C347,412 275,458 184,458C119,458 70,438 35,397l0,-97C78,351 128,374 177,374C231,374 258,351 258,295l0,-24l-79,-28C107,217 26,190 26,101C26,43 70,-9 136,-9C177,-9 218,6 257,37C265,5 286,-9 325,-9C353,-9 370,-1 411,26M258,91C234,68 208,54 180,54C143,54 116,80 116,117C116,170 182,196 258,222M302,643C298,616 286,605 266,605C237,605 175,640 125,640C79,640 52,598 47,525l41,0C91,548 102,560 122,560C169,560 206,525 261,525C307,525 340,572 340,643z"
   id="glyph3104" />
<glyph
   unicode="b"
   horiz-adv-x="500"
   d="M148,682l-89,0l0,-657C103,4 167,-9 226,-9C376,-9 466,82 466,234C466,363 384,458 272,458C227,458 187,445 148,417M148,332C186,366 213,378 250,378C325,378 375,316 375,221C375,136 318,75 238,75C212,75 174,81 148,89z"
   id="glyph3106" />
<glyph
   unicode="\"
   horiz-adv-x="281"
   d="M274,-9l-196,700l-70,0l196,-700z"
   id="glyph3108" />
<glyph
   unicode="|"
   horiz-adv-x="260"
   d="M92,-250l76,0l0,1000l-76,0z"
   id="glyph3110" />
<glyph
   unicode="{"
   horiz-adv-x="333"
   d="M28,219C110,219 129,158 129,56l0,-88C129,-148 164,-210 271,-210l39,0l0,76l-15,0C225,-134 211,-116 211,-33l0,72C211,174 184,227 109,259C184,291 211,344 211,479l0,72C211,634 225,652 295,652l15,0l0,76l-39,0C164,728 129,666 129,550l0,-88C129,360 110,299 28,299z"
   id="glyph3112" />
<glyph
   unicode="}"
   horiz-adv-x="333"
   d="M305,299C223,299 204,360 204,462l0,88C204,666 169,728 62,728l-39,0l0,-76l15,0C108,652 122,634 122,551l0,-72C122,344 149,291 224,259C149,227 122,174 122,39l0,-72C122,-116 108,-134 38,-134l-15,0l0,-76l39,0C169,-210 204,-148 204,-32l0,88C204,158 223,219 305,219z"
   id="glyph3114" />
<glyph
   unicode="["
   horiz-adv-x="333"
   d="M319,682l-233,0l0,-903l233,0l0,80l-137,0l0,743l137,0z"
   id="glyph3116" />
<glyph
   unicode="]"
   horiz-adv-x="333"
   d="M14,-221l233,0l0,903l-233,0l0,-80l137,0l0,-743l-137,0z"
   id="glyph3118" />
<glyph
   unicode="¦"
   horiz-adv-x="260"
   d="M92,-175l76,0l0,350l-76,0M92,325l76,0l0,350l-76,0z"
   id="glyph3120" />
<glyph
   unicode="•"
   horiz-adv-x="354"
   d="M177,465C109,465 53,409 53,341C53,273 109,217 177,217C245,217 301,273 301,341C301,409 245,465 177,465z"
   id="glyph3122" />
<glyph
   unicode="c"
   horiz-adv-x="438"
   d="M393,427C350,446 315,458 263,458C127,458 41,364 41,216C41,84 135,-9 269,-9C316,-9 373,3 403,17l0,88C358,85 322,75 284,75C192,75 132,131 132,224C132,315 188,376 269,376C308,376 342,366 393,332z"
   id="glyph3124" />
<glyph
   unicode="ç"
   horiz-adv-x="438"
   d="M403,105C358,85 322,75 284,75C192,75 132,131 132,224C132,315 188,376 269,376C308,376 342,366 393,332l0,95C350,446 315,458 263,458C127,458 41,364 41,216C41,106 107,23 206,-1l-24,-68C220,-65 240,-77 240,-94C240,-117 203,-127 156,-120l0,-55C244,-188 311,-161 311,-86C311,-55 290,-32 257,-23l4,14C316,-9 373,3 403,17z"
   id="glyph3126" />
<glyph
   unicode="¢"
   horiz-adv-x="438"
   d="M408,620l-46,0l-59,-165C134,476 38,368 38,216C38,132 81,56 146,19l-77,-209l47,0l69,190C259,-17 323,-9 400,19l0,86C350,77 275,62 215,87l102,281C341,362 370,348 390,332l0,94C380,432 357,440 345,445M178,109C146,137 129,176 129,221C129,303 182,382 274,375z"
   id="glyph3128" />
<glyph
   unicode=":"
   horiz-adv-x="219"
   d="M109,458C76,458 49,431 49,398C49,365 76,338 109,338C142,338 169,365 169,398C169,431 142,458 109,458M109,111C76,111 49,84 49,51C49,18 76,-9 109,-9C142,-9 169,18 169,51C169,84 142,111 109,111z"
   id="glyph3130" />
<glyph
   unicode=","
   horiz-adv-x="219"
   d="M59,-118C138,-96 176,-31 176,26C176,85 148,123 105,123C71,123 46,99 46,66C46,33 66,11 95,10C104,-26 92,-77 59,-99z"
   id="glyph3132" />
<glyph
   unicode="©"
   horiz-adv-x="740"
   d="M488,300C474,243 427,206 370,206C291,206 244,262 244,355C244,450 293,512 369,512C425,512 463,487 483,437l58,14C519,525 459,566 374,566C255,566 177,487 177,365C177,232 250,149 366,149C461,149 528,197 548,282M738,360C738,564 573,728 369,728C165,728 1,564 1,360C1,156 165,-9 369,-9C573,-9 738,156 738,360M677,360C677,190 539,52 369,52C199,52 62,190 62,360C62,530 199,667 369,667C539,667 677,530 677,360z"
   id="glyph3134" />
<glyph
   unicode="d"
   horiz-adv-x="510"
   d="M451,682l-89,0l0,-242C326,453 298,458 268,458C137,458 44,365 44,235C44,91 128,0 262,0l189,0M362,75l-90,0C169,75 135,138 135,222C135,316 193,378 279,378C309,378 332,373 362,361z"
   id="glyph3136" />
<glyph
   unicode="°"
   horiz-adv-x="396"
   d="M197,675C243,675 280,639 280,593C280,547 243,510 197,510C151,510 115,547 115,593C115,639 151,675 197,675M197,728C122,728 62,668 62,593C62,518 122,458 197,458C272,458 332,518 332,593C332,668 272,728 197,728z"
   id="glyph3138" />
<glyph
   unicode="÷"
   horiz-adv-x="584"
   d="M56,394l0,-82l472,0l0,82M292,259C263,259 239,235 239,206C239,177 263,153 292,153C321,153 345,177 345,206C345,235 321,259 292,259M292,553C263,553 239,529 239,500C239,471 263,447 292,447C321,447 345,471 345,500C345,529 321,553 292,553z"
   id="glyph3140" />
<glyph
   unicode="$"
   horiz-adv-x="542"
   d="M470,596C433,627 366,651 321,655l0,36l-82,0l0,-36C123,638 52,569 52,472C52,405 111,331 239,297l0,-216C153,101 115,125 51,182l0,-121C113,25 172,-5 239,-9l0,-109l82,0l0,109C444,4 502,98 502,176C502,266 435,338 321,369l0,198C373,555 435,523 470,488M239,396C177,417 150,446 150,485C150,526 187,560 239,567M321,262C383,237 406,209 406,168C406,123 377,95 321,82z"
   id="glyph3142" />
<glyph
   unicode="e"
   horiz-adv-x="479"
   d="M438,130C386,96 335,76 281,76C195,76 144,122 130,211l316,0C446,377 370,458 251,458C127,458 41,366 41,230C41,106 119,-9 259,-9C335,-9 384,8 438,44M132,270C144,341 185,381 253,381C316,381 355,338 358,270z"
   id="glyph3144" />
<glyph
   unicode="é"
   horiz-adv-x="479"
   d="M438,130C386,96 335,76 281,76C195,76 144,122 130,211l316,0C446,377 370,458 251,458C127,458 41,366 41,230C41,106 119,-9 259,-9C335,-9 384,8 438,44M132,270C144,341 185,381 253,381C316,381 355,338 358,270M251,654l-67,-147l55,0l112,147z"
   id="glyph3146" />
<glyph
   unicode="ê"
   horiz-adv-x="479"
   d="M438,130C386,96 335,76 281,76C195,76 144,122 130,211l316,0C446,377 370,458 251,458C127,458 41,366 41,230C41,106 119,-9 259,-9C335,-9 384,8 438,44M132,270C144,341 185,381 253,381C316,381 355,338 358,270M285,657l-93,0l-91,-151l53,0l83,87l87,-87l55,0z"
   id="glyph3148" />
<glyph
   unicode="ë"
   horiz-adv-x="479"
   d="M438,130C386,96 335,76 281,76C195,76 144,122 130,211l316,0C446,377 370,458 251,458C127,458 41,366 41,230C41,106 119,-9 259,-9C335,-9 384,8 438,44M132,270C144,341 185,381 253,381C316,381 355,338 358,270M147,628C121,628 100,608 100,582C100,556 121,535 147,535C173,535 193,556 193,582C193,608 173,628 147,628M333,628C307,628 286,608 286,582C286,556 307,535 333,535C359,535 379,556 379,582C379,608 359,628 333,628z"
   id="glyph3150" />
<glyph
   unicode="è"
   horiz-adv-x="479"
   d="M438,130C386,96 335,76 281,76C195,76 144,122 130,211l316,0C446,377 370,458 251,458C127,458 41,366 41,230C41,106 119,-9 259,-9C335,-9 384,8 438,44M132,270C144,341 185,381 253,381C316,381 355,338 358,270M233,654l-100,0l112,-147l55,0z"
   id="glyph3152" />
<glyph
   unicode="8"
   horiz-adv-x="500"
   d="M468,184C468,253 436,315 373,348C431,386 458,442 458,493C458,606 372,691 257,691C138,691 48,607 48,495C48,437 78,385 129,348C64,310 32,257 32,185C32,76 128,-9 252,-9C374,-9 468,75 468,184M360,495C360,440 312,393 253,393C195,393 146,441 146,497C146,558 190,598 255,598C316,598 360,554 360,495M370,192C370,135 329,84 250,84C180,84 130,129 130,192C130,256 178,300 252,300C321,300 370,254 370,192z"
   id="glyph3154" />
<glyph
   unicode="…"
   horiz-adv-x="1000"
   d="M166,111C133,111 106,84 106,51C106,18 133,-9 166,-9C199,-9 226,18 226,51C226,84 199,111 166,111M500,111C467,111 440,84 440,51C440,18 467,-9 500,-9C533,-9 560,18 560,51C560,84 533,111 500,111M834,111C801,111 774,84 774,51C774,18 801,-9 834,-9C867,-9 894,18 894,51C894,84 867,111 834,111z"
   id="glyph3156" />
<glyph
   unicode="—"
   horiz-adv-x="1000"
   d="M1009,285l-1018,0l0,-64l1018,0z"
   id="glyph3158" />
<glyph
   unicode="–"
   horiz-adv-x="500"
   d="M509,285l-518,0l0,-64l518,0z"
   id="glyph3160" />
<glyph
   unicode="="
   horiz-adv-x="584"
   d="M56,503l0,-82l472,0l0,82M56,285l0,-82l472,0l0,82z"
   id="glyph3162" />
<glyph
   unicode="ð"
   horiz-adv-x="563"
   d="M127,229C127,315 188,378 272,378C361,378 425,315 425,228C425,131 366,71 272,71C186,71 127,134 127,229M502,637l-28,53l-121,-58C326,655 296,675 261,690l-61,-59C224,620 246,607 267,591l-113,-53l28,-53l133,63C358,504 389,455 403,418l-2,-2C358,453 303,458 273,458C139,458 36,358 36,229C36,91 135,-9 273,-9C426,-9 516,90 516,282C516,376 480,496 399,588z"
   id="glyph3164" />
<glyph
   unicode="!"
   horiz-adv-x="271"
   d="M79,543C79,499 81,463 85,436l25,-172C116,220 122,201 135,201C148,201 154,220 160,264l25,172C189,463 191,499 191,543C191,642 173,691 135,691C97,691 79,642 79,543M136,111C103,111 76,84 76,51C76,18 103,-9 136,-9C169,-9 196,18 196,51C196,84 169,111 136,111z"
   id="glyph3166" />
<glyph
   unicode="¡"
   horiz-adv-x="271"
   d="M136,-192C174,-192 192,-143 192,-44C192,0 190,36 186,63l-25,172C155,279 149,298 136,298C123,298 117,279 111,235l-25,-172C82,36 80,0 80,-44C80,-143 98,-192 136,-192M135,388C168,388 195,415 195,448C195,481 168,508 135,508C102,508 75,481 75,448C75,415 102,388 135,388z"
   id="glyph3168" />
<glyph
   unicode="f"
   horiz-adv-x="250"
   d="M296,682C218,704 167,686 129,648C93,612 72,570 72,482l0,-33l-63,0l0,-80l63,0l0,-369l89,0l0,369l81,0l0,80l-81,0l0,43C161,561 184,603 256,603C272,603 281,601 296,595z"
   id="glyph3170" />
<glyph
   unicode="ﬁ"
   horiz-adv-x="500"
   d="M269,449l-100,0C162,558 197,611 268,611C309,611 333,592 349,548l89,0C435,635 370,691 270,691C148,691 77,614 80,449l-67,0l0,-75l67,0l0,-374l89,0l0,374l100,0M438,449l-89,0l0,-449l89,0z"
   id="glyph3172" />
<glyph
   unicode="ﬂ"
   horiz-adv-x="500"
   d="M303,682C234,702 178,689 136,647C100,611 78,570 78,482l0,-33l-69,0l0,-75l69,0l0,-374l89,0l0,374l100,0l0,75l-100,0l0,46C167,567 193,611 264,611C280,611 296,606 303,600M436,682l-89,0l0,-682l89,0z"
   id="glyph3174" />
<glyph
   unicode="5"
   horiz-adv-x="500"
   d="M404,682l-303,0l0,-355C251,363 340,294 340,207C340,140 276,84 199,84C149,84 99,101 50,134l0,-101C109,3 156,-9 215,-9C344,-9 438,83 438,209C438,335 344,432 190,423l0,171l214,0z"
   id="glyph3176" />
<glyph
   unicode="4"
   horiz-adv-x="500"
   d="M398,691l-42,0l-345,-422l0,-45l289,0l0,-224l98,0l0,224l73,0l0,88l-73,0M298,506l2,0l0,-194l-158,0z"
   id="glyph3178" />
<glyph
   unicode="g"
   horiz-adv-x="427"
   d="M421,449l-185,0C115,449 40,390 40,294C40,261 48,233 64,210C81,186 106,167 139,153l0,-2C96,141 68,116 68,87C68,67 82,49 113,30C35,11 0,-28 0,-94C0,-173 86,-230 207,-230C340,-230 419,-176 419,-87C419,-30 385,19 289,38C199,56 152,71 152,96C152,149 274,117 334,181C355,202 376,245 376,282C376,320 364,345 329,380l92,0M296,293C296,244 260,209 210,209C156,209 120,242 120,291C120,335 160,372 209,372C256,372 296,336 296,293M333,-94C333,-135 287,-159 209,-159C128,-159 84,-135 84,-90C84,-50 126,-22 186,-22C241,-22 333,-37 333,-94z"
   id="glyph3180" />
<glyph
   unicode="ß"
   horiz-adv-x="500"
   d="M59,0l89,0l0,506C148,594 193,622 250,622C306,622 348,576 348,516C348,448 308,410 231,412l0,-80C347,335 376,267 376,198C376,125 334,76 271,76C251,76 243,78 223,87l0,-87C254,-7 266,-9 287,-9C395,-9 467,73 467,196C467,289 420,355 340,375l0,2C401,402 439,458 439,526C439,629 367,691 249,691C137,691 59,629 59,517z"
   id="glyph3182" />
<glyph
   unicode="`"
   horiz-adv-x="333"
   d="M160,654l-100,0l112,-147l55,0z"
   id="glyph3184" />
<glyph
   unicode="&gt;"
   horiz-adv-x="584"
   d="M529,313l0,82l-474,202l0,-87l376,-156l-376,-156l0,-87z"
   id="glyph3186" />
<glyph
   unicode="«"
   horiz-adv-x="490"
   d="M320,225l148,225l-88,0l-147,-225l147,-225l88,0M117,225l148,225l-88,0l-147,-225l147,-225l88,0z"
   id="glyph3188" />
<glyph
   unicode="»"
   horiz-adv-x="490"
   d="M373,225l-148,-225l88,0l147,225l-147,225l-88,0M170,225l-148,-225l88,0l147,225l-147,225l-88,0z"
   id="glyph3190" />
<glyph
   unicode="h"
   horiz-adv-x="500"
   d="M150,682l-89,0l0,-682l89,0l0,322C192,369 223,387 262,387C316,387 350,344 350,278l0,-278l89,0l0,275C439,398 374,458 286,458C236,458 186,433 152,390l-2,0z"
   id="glyph3192" />
<glyph
   unicode="-"
   horiz-adv-x="323"
   d="M283,267l-243,0l0,-93l243,0z"
   id="glyph3194" />
<glyph
   unicode="i"
   horiz-adv-x="219"
   d="M154,449l-89,0l0,-449l89,0M163,585C163,614 139,638 110,638C81,638 57,614 57,585C57,556 81,532 110,532C139,532 163,556 163,585z"
   id="glyph3196" />
<glyph
   unicode="í"
   horiz-adv-x="219"
   d="M154,449l-89,0l0,-449l89,0M121,654l-67,-147l55,0l112,147z"
   id="glyph3198" />
<glyph
   unicode="î"
   horiz-adv-x="219"
   d="M154,449l-89,0l0,-449l89,0M155,657l-93,0l-91,-151l53,0l83,87l87,-87l55,0z"
   id="glyph3200" />
<glyph
   unicode="ï"
   horiz-adv-x="219"
   d="M154,449l-89,0l0,-449l89,0M17,628C-9,628 -30,608 -30,582C-30,556 -9,535 17,535C43,535 63,556 63,582C63,608 43,628 17,628M203,628C177,628 156,608 156,582C156,556 177,535 203,535C229,535 249,556 249,582C249,608 229,628 203,628z"
   id="glyph3202" />
<glyph
   unicode="ì"
   horiz-adv-x="219"
   d="M154,449l-89,0l0,-449l89,0M103,654l-100,0l112,-147l55,0z"
   id="glyph3204" />
<glyph
   unicode="j"
   horiz-adv-x="219"
   d="M150,449l-89,0l0,-515C61,-116 33,-148 -6,-164l67,-66C120,-198 150,-155 150,-59M159,585C159,614 135,638 106,638C77,638 53,614 53,585C53,556 77,532 106,532C135,532 159,556 159,585z"
   id="glyph3206" />
<glyph
   unicode="k"
   horiz-adv-x="479"
   d="M460,449l-106,0l-199,-220l225,-229l120,0l-232,229M151,682l-89,0l0,-682l89,0z"
   id="glyph3208" />
<glyph
   unicode="l"
   horiz-adv-x="219"
   d="M154,682l-89,0l0,-682l89,0z"
   id="glyph3210" />
<glyph
   unicode="&lt;"
   horiz-adv-x="584"
   d="M55,313l474,-202l0,87l-376,156l376,156l0,87l-474,-202z"
   id="glyph3212" />
<glyph
   unicode="m"
   horiz-adv-x="771"
   d="M59,449l0,-449l89,0l0,326C185,369 215,383 260,383C304,383 341,352 341,279l0,-279l89,0l0,326C462,359 501,384 530,383C581,383 623,346 623,278l0,-278l89,0l0,282C712,388 654,458 563,458C499,458 452,421 413,377C383,430 336,458 279,458C237,458 194,436 148,390l0,59z"
   id="glyph3214" />
<glyph
   unicode="µ"
   horiz-adv-x="552"
   d="M469,449l-89,0l0,-250C380,110 341,58 275,58C217,58 176,104 176,201l0,248l-89,0l0,-621l89,0l0,217l2,0C205,6 236,-9 280,-9C330,-9 360,9 385,53l2,0l0,-53l82,0z"
   id="glyph3216" />
<glyph
   unicode="×"
   horiz-adv-x="584"
   d="M79,200l59,-59l154,154l153,-153l59,59l-153,153l153,153l-59,59l-153,-153l-154,154l-59,-59l154,-154z"
   id="glyph3218" />
<glyph
   unicode="n"
   horiz-adv-x="500"
   d="M150,449l-89,0l0,-449l89,0l0,322C192,369 223,387 262,387C316,387 350,344 350,278l0,-278l89,0l0,277C439,400 371,458 286,458C236,458 186,433 152,390l-2,0z"
   id="glyph3220" />
<glyph
   unicode="9"
   horiz-adv-x="500"
   d="M187,-9C347,89 461,277 461,442C461,585 370,691 244,691C118,691 36,590 36,489C36,378 121,290 229,290C265,290 305,301 335,319C316,233 242,138 127,63M134,490C134,553 181,598 246,598C309,598 360,541 360,475C360,458 360,444 355,420C318,394 279,383 250,383C186,383 134,431 134,490z"
   id="glyph3222" />
<glyph
   unicode="ñ"
   horiz-adv-x="500"
   d="M150,449l-89,0l0,-449l89,0l0,322C192,369 223,387 262,387C316,387 350,344 350,278l0,-278l89,0l0,277C439,400 371,458 286,458C236,458 186,433 152,390l-2,0M359,643C355,616 343,605 323,605C294,605 232,640 182,640C136,640 109,598 104,525l41,0C148,548 159,560 179,560C226,560 263,525 318,525C364,525 397,572 397,643z"
   id="glyph3224" />
<glyph
   unicode="#"
   horiz-adv-x="584"
   d="M196,617l-41,-195l-154,0l0,-69l140,0l-36,-170l-104,0l0,-69l90,0l-41,-195l72,0l41,195l194,0l-41,-195l72,0l41,195l155,0l0,69l-141,0l36,170l105,0l0,69l-91,0l41,195l-72,0l-41,-195l-194,0l41,195M213,353l194,0l-36,-170l-194,0z"
   id="glyph3226" />
<glyph
   unicode="o"
   horiz-adv-x="552"
   d="M273,458C139,458 36,358 36,229C36,91 135,-9 273,-9C417,-9 516,87 516,229C516,362 414,458 273,458M272,378C361,378 425,315 425,228C425,131 366,71 272,71C186,71 127,134 127,229C127,315 188,378 272,378z"
   id="glyph3228" />
<glyph
   unicode="ó"
   horiz-adv-x="552"
   d="M273,458C139,458 36,358 36,229C36,91 135,-9 273,-9C417,-9 516,87 516,229C516,362 414,458 273,458M272,378C361,378 425,315 425,228C425,131 366,71 272,71C186,71 127,134 127,229C127,315 188,378 272,378M288,654l-67,-147l55,0l112,147z"
   id="glyph3230" />
<glyph
   unicode="ô"
   horiz-adv-x="552"
   d="M273,458C139,458 36,358 36,229C36,91 135,-9 273,-9C417,-9 516,87 516,229C516,362 414,458 273,458M272,378C361,378 425,315 425,228C425,131 366,71 272,71C186,71 127,134 127,229C127,315 188,378 272,378M322,657l-93,0l-91,-151l53,0l83,87l87,-87l55,0z"
   id="glyph3232" />
<glyph
   unicode="ö"
   horiz-adv-x="552"
   d="M273,458C139,458 36,358 36,229C36,91 135,-9 273,-9C417,-9 516,87 516,229C516,362 414,458 273,458M272,378C361,378 425,315 425,228C425,131 366,71 272,71C186,71 127,134 127,229C127,315 188,378 272,378M184,628C158,628 137,608 137,582C137,556 158,535 184,535C210,535 230,556 230,582C230,608 210,628 184,628M370,628C344,628 323,608 323,582C323,556 344,535 370,535C396,535 416,556 416,582C416,608 396,628 370,628z"
   id="glyph3234" />
<glyph
   unicode="ò"
   horiz-adv-x="552"
   d="M273,458C139,458 36,358 36,229C36,91 135,-9 273,-9C417,-9 516,87 516,229C516,362 414,458 273,458M272,378C361,378 425,315 425,228C425,131 366,71 272,71C186,71 127,134 127,229C127,315 188,378 272,378M270,654l-100,0l112,-147l55,0z"
   id="glyph3236" />
<glyph
   unicode="1"
   horiz-adv-x="500"
   d="M300,682l-98,0l0,-682l98,0z"
   id="glyph3238" />
<glyph
   unicode="¹"
   horiz-adv-x="323"
   d="M196,687l-69,0l0,-355l69,0z"
   id="glyph3240" />
<glyph
   unicode="½"
   horiz-adv-x="844"
   d="M732,54l-151,0C662,134 703,194 703,247C703,313 650,359 574,359C539,359 508,348 474,323l0,-78C497,279 533,303 569,303C607,303 633,279 633,243C633,187 572,117 465,7l0,-7l267,0M605,691l-67,0l-455,-718l67,0M195,687l-69,0l0,-355l69,0z"
   id="glyph3242" />
<glyph
   unicode="¼"
   horiz-adv-x="844"
   d="M635,360l-33,0l-205,-220l0,-25l170,0l0,-115l68,0l0,115l45,0l0,49l-45,0M567,248l0,-84l-78,0M195,687l-69,0l0,-355l69,0M605,691l-67,0l-455,-718l67,0z"
   id="glyph3244" />
<glyph
   unicode="ø"
   horiz-adv-x="552"
   d="M160,123C138,151 127,193 127,229C127,315 188,378 272,378C309,378 340,366 359,355M138,29C173,7 220,-9 273,-9C417,-9 516,87 516,229C516,293 493,348 449,392l44,51l-33,30l-47,-54C379,443 329,458 273,458C139,458 36,358 36,229C36,160 62,99 104,57l-55,-64l33,-30M392,325C415,297 425,257 425,228C425,131 366,71 272,71C239,71 215,79 193,93z"
   id="glyph3246" />
<glyph
   unicode="õ"
   horiz-adv-x="552"
   d="M273,458C139,458 36,358 36,229C36,91 135,-9 273,-9C417,-9 516,87 516,229C516,362 414,458 273,458M272,378C361,378 425,315 425,228C425,131 366,71 272,71C186,71 127,134 127,229C127,315 188,378 272,378M385,643C381,616 369,605 349,605C320,605 258,640 208,640C162,640 135,598 130,525l41,0C174,548 185,560 205,560C252,560 289,525 344,525C390,525 423,572 423,643z"
   id="glyph3248" />
<glyph
   unicode="p"
   horiz-adv-x="500"
   d="M146,11C180,-3 207,-9 236,-9C369,-9 464,86 464,221C464,369 375,449 211,449l-154,0l0,-679l89,0M146,369l81,0C324,369 373,315 373,222C373,135 313,71 230,71C202,71 173,78 146,91z"
   id="glyph3250" />
<glyph
   unicode="¶"
   horiz-adv-x="542"
   d="M198,-199l80,0l0,835l109,0l0,-835l83,0l0,835l70,0l0,80l-309,0C84,716 1,643 1,514C1,395 75,318 198,311z"
   id="glyph3252" />
<glyph
   unicode="("
   horiz-adv-x="323"
   d="M167,232C167,413 214,565 311,694l-53,0C139,576 64,400 64,232C64,64 139,-112 258,-230l53,0C214,-101 167,51 167,232z"
   id="glyph3254" />
<glyph
   unicode=")"
   horiz-adv-x="323"
   d="M156,232C156,51 109,-101 12,-230l53,0C184,-112 259,64 259,232C259,400 184,576 65,694l-53,0C109,565 156,413 156,232z"
   id="glyph3256" />
<glyph
   unicode="%"
   horiz-adv-x="680"
   d="M502,222C546,222 581,186 581,143C581,99 546,64 502,64C459,64 423,99 423,143C423,186 459,222 502,222M502,296C418,296 349,227 349,143C349,58 418,-10 502,-10C585,-10 655,59 655,143C655,227 585,296 502,296M602,691l-75,0l-449,-701l75,0M178,690C94,690 25,621 25,537C25,452 94,384 178,384C261,384 331,453 331,537C331,621 261,690 178,690M178,616C222,616 257,580 257,537C257,493 222,458 178,458C135,458 99,493 99,537C99,580 135,616 178,616z"
   id="glyph3258" />
<glyph
   unicode="."
   horiz-adv-x="219"
   d="M109,111C76,111 49,84 49,51C49,18 76,-9 109,-9C142,-9 169,18 169,51C169,84 142,111 109,111z"
   id="glyph3260" />
<glyph
   unicode="·"
   horiz-adv-x="260"
   d="M130,405C97,405 70,378 70,345C70,312 97,285 130,285C163,285 190,312 190,345C190,378 163,405 130,405z"
   id="glyph3262" />
<glyph
   unicode="+"
   horiz-adv-x="584"
   d="M251,589l0,-195l-195,0l0,-82l195,0l0,-195l82,0l0,195l195,0l0,82l-195,0l0,195z"
   id="glyph3264" />
<glyph
   unicode="±"
   horiz-adv-x="584"
   d="M56,82l0,-82l472,0l0,82M251,589l0,-195l-195,0l0,-82l195,0l0,-195l82,0l0,195l195,0l0,82l-195,0l0,195z"
   id="glyph3266" />
<glyph
   unicode="q"
   horiz-adv-x="500"
   d="M354,-230l89,0l0,679l-164,0C72,449 36,293 36,221C36,86 131,-9 264,-9C289,-9 321,-3 354,7M354,369l0,-283C327,73 298,66 270,66C187,66 127,135 127,222C127,324 202,369 273,369z"
   id="glyph3268" />
<glyph
   unicode="?"
   horiz-adv-x="333"
   d="M82,595C93,597 106,601 126,601C166,601 192,574 192,534C192,443 80,373 80,267C80,222 97,196 139,175C125,278 290,396 290,546C290,609 247,692 129,691M154,111C121,111 94,84 94,51C94,18 121,-9 154,-9C187,-9 214,18 214,51C214,84 187,111 154,111z"
   id="glyph3270" />
<glyph
   unicode="¿"
   horiz-adv-x="333"
   d="M251,-97C240,-99 227,-103 207,-103C167,-103 141,-76 141,-36C141,55 253,125 253,231C253,276 236,302 194,323C208,220 43,102 43,-48C43,-111 86,-194 204,-193M179,387C212,387 239,414 239,447C239,480 212,507 179,507C146,507 119,480 119,447C119,414 146,387 179,387z"
   id="glyph3272" />
<glyph
   unicode="&quot;"
   horiz-adv-x="354"
   d="M241,462l42,0l23,137l0,117l-88,0l0,-117M71,462l42,0l23,137l0,117l-88,0l0,-117z"
   id="glyph3274" />
<glyph
   unicode="“"
   horiz-adv-x="427"
   d="M373,691C299,669 259,612 259,538C259,487 285,445 326,445C360,445 386,466 386,506C386,538 365,561 333,565C331,605 332,637 373,672M155,691C81,669 41,612 41,538C41,487 67,445 108,445C142,445 168,466 168,506C168,538 147,561 115,565C113,605 114,637 155,672z"
   id="glyph3276" />
<glyph
   unicode="”"
   horiz-adv-x="427"
   d="M272,445C346,467 386,524 386,598C386,649 360,691 319,691C285,691 259,670 259,630C259,598 280,575 312,571C314,531 313,499 272,464M54,445C128,467 168,524 168,598C168,649 142,691 101,691C67,691 41,670 41,630C41,598 62,575 94,571C96,531 95,499 54,464z"
   id="glyph3278" />
<glyph
   unicode="‘"
   horiz-adv-x="219"
   d="M160,691C86,669 46,612 46,538C46,487 72,445 113,445C147,445 173,466 173,506C173,538 152,561 120,565C118,605 119,637 160,672z"
   id="glyph3280" />
<glyph
   unicode="’"
   horiz-adv-x="219"
   d="M59,445C133,467 173,524 173,598C173,649 147,691 106,691C72,691 46,670 46,630C46,598 67,575 99,571C101,531 100,499 59,464z"
   id="glyph3282" />
<glyph
   unicode="'"
   horiz-adv-x="188"
   d="M73,462l42,0l23,137l0,117l-88,0l0,-117z"
   id="glyph3284" />
<glyph
   unicode="r"
   horiz-adv-x="396"
   d="M69,449l0,-449l89,0l0,235C158,312 206,373 267,373C288,373 323,355 350,329l47,77C360,441 326,458 290,458C248,458 205,425 160,346l-2,0l0,103z"
   id="glyph3286" />
<glyph
   unicode="®"
   horiz-adv-x="740"
   d="M208,156l64,0l0,168l38,0C359,324 378,307 428,218l35,-62l78,0l-48,77C460,286 435,320 401,332l0,2C468,338 514,384 514,448C514,491 481,552 383,552l-175,0M272,379l0,119l103,0C417,498 446,475 446,439C446,398 413,379 364,379M677,360C677,190 539,52 369,52C199,52 62,190 62,360C62,530 199,667 369,667C539,667 677,530 677,360M738,360C738,564 573,728 369,728C165,728 1,564 1,360C1,156 165,-9 369,-9C573,-9 738,156 738,360z"
   id="glyph3288" />
<glyph
   unicode="s"
   horiz-adv-x="385"
   d="M324,421C277,446 234,458 192,458C102,458 44,412 44,336C44,215 254,182 254,120C254,88 224,71 188,69C152,69 99,88 41,128l0,-96C99,2 142,-9 197,-9C282,-9 345,44 345,123C345,169 318,200 244,249C165,295 135,319 135,339C135,363 158,380 194,380C227,380 274,366 324,333z"
   id="glyph3290" />
<glyph
   unicode=";"
   horiz-adv-x="219"
   d="M61,-115C135,-93 175,-36 175,38C175,89 149,131 108,131C74,131 48,110 48,70C48,38 69,15 101,11C103,-29 102,-61 61,-96M169,398C169,431 142,458 109,458C76,458 49,431 49,398C49,365 76,338 109,338C142,338 169,365 169,398z"
   id="glyph3292" />
<glyph
   unicode="7"
   horiz-adv-x="500"
   d="M490,682l-441,0l0,-93l295,0l-250,-560l87,-38z"
   id="glyph3294" />
<glyph
   unicode="6"
   horiz-adv-x="500"
   d="M317,691C140,573 44,404 44,233C44,89 133,-9 264,-9C373,-9 465,84 465,195C465,308 383,394 274,394C229,394 194,380 167,366C195,461 280,560 376,616M146,265C189,293 212,301 254,301C319,301 367,256 367,196C367,129 323,84 258,84C187,84 120,153 146,265z"
   id="glyph3296" />
<glyph
   unicode="/"
   horiz-adv-x="281"
   d="M8,-9l70,0l196,700l-70,0z"
   id="glyph3298" />
<glyph
   unicode=" "
   horiz-adv-x="278"
   id="glyph3300" />
<glyph
   unicode="£"
   horiz-adv-x="531"
   d="M333,374l-76,0C302,533 355,598 437,598C453,598 469,597 490,589l11,0l-52,98C292,719 211,547 161,374l-95,0l0,-88l72,0l-79,-295C110,1 157,6 221,6C250,6 281,3 310,-1C340,-5 368,-9 391,-9C411,-9 429,-7 446,-4C463,-1 479,3 496,9l0,95C472,90 438,84 395,84C367,84 346,88 320,92C295,96 266,99 221,99C200,99 196,99 181,97l50,189l102,0z"
   id="glyph3302" />
<glyph
   unicode="t"
   horiz-adv-x="333"
   d="M167,542l-167,-163l0,-10l78,0l0,-237C78,51 127,-9 224,-9C253,-9 301,4 332,21l0,83C296,82 263,71 231,71C205,71 167,86 167,139l0,230l142,0l0,80l-142,0z"
   id="glyph3304" />
<glyph
   unicode="þ"
   horiz-adv-x="500"
   d="M146,11C180,-3 207,-9 236,-9C369,-9 464,86 464,221C464,369 375,449 211,449l-65,0l0,233l-89,0l0,-912l89,0M146,369l81,0C324,369 373,315 373,222C373,135 313,71 230,71C202,71 173,78 146,91z"
   id="glyph3306" />
<glyph
   unicode="3"
   horiz-adv-x="500"
   d="M81,569C128,590 160,598 197,598C269,598 315,559 315,496C315,434 270,397 180,397l0,-90C277,312 326,260 326,193C326,127 283,84 216,84C166,84 116,101 64,136l0,-106C113,5 162,-9 209,-9C335,-9 424,76 424,198C424,268 394,339 326,360C388,394 413,437 413,513C413,621 334,691 212,691C161,691 122,682 81,662z"
   id="glyph3308" />
<glyph
   unicode="³"
   horiz-adv-x="323"
   d="M56,619C90,634 107,639 131,639C171,639 195,620 195,589C195,564 177,535 114,541l0,-52C171,491 198,474 198,434C198,403 176,383 140,383C109,383 82,391 46,412l0,-63C78,334 108,327 137,327C215,327 270,372 270,436C270,476 251,506 216,519C249,536 263,560 263,597C263,654 214,691 139,691C106,691 83,686 56,674z"
   id="glyph3310" />
<glyph
   unicode="¾"
   horiz-adv-x="844"
   d="M653,691l-67,0l-455,-718l67,0M75,619C109,634 126,639 150,639C190,639 214,620 214,589C214,564 196,535 133,541l0,-52C190,491 217,474 217,434C217,403 195,383 159,383C128,383 101,391 65,412l0,-63C97,334 127,327 156,327C234,327 289,372 289,436C289,476 270,506 235,519C268,536 282,560 282,597C282,654 233,691 158,691C125,691 102,686 75,674M683,360l-33,0l-205,-220l0,-25l170,0l0,-115l68,0l0,115l45,0l0,49l-45,0M615,248l0,-84l-78,0z"
   id="glyph3312" />
<glyph
   unicode="™"
   horiz-adv-x="1000"
   d="M239,318l66,0l0,339l130,0l0,59l-325,0l0,-59l129,0M480,318l61,0l0,339l2,0l105,-339l60,0l100,334l2,0l0,-334l61,0l0,398l-96,0l-96,-318l-2,0l-99,318l-98,0z"
   id="glyph3314" />
<glyph
   unicode="2"
   horiz-adv-x="500"
   d="M466,93l-261,0C357,274 417,367 417,478C417,604 332,691 209,691C154,691 103,670 48,626l0,-123C103,573 153,595 202,595C269,595 319,542 319,467C319,410 303,376 271,321C213,222 109,98 34,7l0,-7l432,0z"
   id="glyph3316" />
<glyph
   unicode="²"
   horiz-adv-x="323"
   d="M295,386l-151,0C225,466 266,526 266,579C266,645 213,691 137,691C102,691 71,680 37,655l0,-78C60,611 96,635 132,635C170,635 196,611 196,575C196,519 135,449 28,339l0,-7l267,0z"
   id="glyph3318" />
<glyph
   unicode="u"
   horiz-adv-x="500"
   d="M437,0l0,449l-89,0l0,-321C319,87 281,65 241,65C180,65 149,101 149,164l0,285l-89,0l0,-279C60,56 124,-9 215,-9C259,-9 311,17 348,57l0,-57z"
   id="glyph3320" />
<glyph
   unicode="ú"
   horiz-adv-x="500"
   d="M437,0l0,449l-89,0l0,-321C319,87 281,65 241,65C180,65 149,101 149,164l0,285l-89,0l0,-279C60,56 124,-9 215,-9C259,-9 311,17 348,57l0,-57M262,654l-67,-147l55,0l112,147z"
   id="glyph3322" />
<glyph
   unicode="û"
   horiz-adv-x="500"
   d="M437,0l0,449l-89,0l0,-321C319,87 281,65 241,65C180,65 149,101 149,164l0,285l-89,0l0,-279C60,56 124,-9 215,-9C259,-9 311,17 348,57l0,-57M296,657l-93,0l-91,-151l53,0l83,87l87,-87l55,0z"
   id="glyph3324" />
<glyph
   unicode="ü"
   horiz-adv-x="500"
   d="M437,0l0,449l-89,0l0,-321C319,87 281,65 241,65C180,65 149,101 149,164l0,285l-89,0l0,-279C60,56 124,-9 215,-9C259,-9 311,17 348,57l0,-57M158,628C132,628 111,608 111,582C111,556 132,535 158,535C184,535 204,556 204,582C204,608 184,628 158,628M344,628C318,628 297,608 297,582C297,556 318,535 344,535C370,535 390,556 390,582C390,608 370,628 344,628z"
   id="glyph3326" />
<glyph
   unicode="ù"
   horiz-adv-x="500"
   d="M437,0l0,449l-89,0l0,-321C319,87 281,65 241,65C180,65 149,101 149,164l0,285l-89,0l0,-279C60,56 124,-9 215,-9C259,-9 311,17 348,57l0,-57M244,654l-100,0l112,-147l55,0z"
   id="glyph3328" />
<glyph
   unicode="_"
   horiz-adv-x="500"
   d="M-6,-75l0,-50l512,0l0,50z"
   id="glyph3330" />
<glyph
   unicode=" "
   horiz-adv-x="278"
   id="glyph3332" />
<glyph
   unicode="­"
   horiz-adv-x="323"
   d="M283,267l-243,0l0,-93l243,0z"
   id="glyph3334" />
<glyph
   unicode="v"
   horiz-adv-x="438"
   d="M206,-9l30,0l198,458l-95,0l-118,-276l-121,276l-97,0z"
   id="glyph3336" />
<glyph
   unicode="w"
   horiz-adv-x="719"
   d="M393,449l-66,0l-114,-272l-118,272l-95,0l200,-458l28,0l132,314l133,-314l28,0l198,458l-95,0l-117,-272z"
   id="glyph3338" />
<glyph
   unicode="x"
   horiz-adv-x="500"
   d="M487,449l-114,0l-128,-154l-133,154l-112,0l189,-221l-189,-228l112,0l133,161l141,-161l114,0l-198,228z"
   id="glyph3340" />
<glyph
   unicode="y"
   horiz-adv-x="438"
   d="M438,449l-100,0l-116,-253l-121,253l-101,0l174,-353l-153,-326l99,0z"
   id="glyph3342" />
<glyph
   unicode="ý"
   horiz-adv-x="438"
   d="M438,449l-100,0l-116,-253l-121,253l-101,0l174,-353l-153,-326l99,0M231,654l-67,-147l55,0l112,147z"
   id="glyph3344" />
<glyph
   unicode="¥"
   horiz-adv-x="552"
   d="M233,0l89,0l0,159l200,0l0,67l-200,0l0,70l200,0l0,73l-165,0l196,347l-103,0l-173,-322l-180,322l-98,0l198,-347l-167,0l0,-73l203,0l0,-70l-203,0l0,-67l203,0z"
   id="glyph3346" />
<glyph
   unicode="z"
   horiz-adv-x="417"
   d="M404,449l-383,0l0,-80l228,0l-238,-369l394,0l0,80l-240,0z"
   id="glyph3348" />
<glyph
   unicode="0"
   horiz-adv-x="500"
   d="M470,341C470,551 382,691 250,691C118,691 30,551 30,341C30,131 118,-9 250,-9C382,-9 470,131 470,341M372,341C372,181 326,84 250,84C174,84 128,181 128,341C128,501 174,598 250,598C326,598 372,501 372,341z"
   id="glyph3350" />
</font>
</defs>
</svg>
