<svg xmlns="http://www.w3.org/2000/svg">
<defs>
<font
       id="FontID0"
       font-variant="normal"
       font-style="normal"
       font-weight="400"
       horiz-origin-x="0"
       horiz-origin-y="0"
       horiz-adv-x="1024"
       vert-origin-x="512"
       vert-origin-y="768"
       vert-adv-y="1024">
	<font-face
   font-family="Kelmscott"
   id="font-face92632">
	</font-face>
   <missing-glyph
   id="missing-glyph92636"><path
     d="M0 0z"
     id="path92634" /></missing-glyph>
   <glyph
   unicode=")"
   horiz-adv-x="311"
   id="glyph92640"><path
     d="M271.997 426.994c1.99841,-21.9967 3.00471,-42.6611 3.00471,-61.9933 0,-83.3381 -19.8282,-158.172 -59.4988,-224.503 -39.6706,-66.3303 -104.173,-132.165 -193.506,-197.503 12.0046,41.343 35.8297,104.499 71.5035,189.509 35.6596,84.9963 53.5036,162.835 53.5036,233.488 0,93.3443 -8.50388,172.005 -25.4975,236.011 -17.0078,63.9917 -50.1729,137.664 -99.5096,221.002 83.3381,-60.6752 143.673,-120.67 181.005,-179.999 37.332,-59.3429 60.3351,-131.342 68.9948,-216.013z"
     id="path92638" /></glyph>
   <glyph
   unicode="."
   horiz-adv-x="327"
   id="glyph92644"><path
     d="M16.0015 127.998l111.996 -127.998 96.0088 127.998 -88.001 111.996 -120.004 -111.996z"
     id="path92642" /></glyph>
   <glyph
   unicode="-"
   horiz-adv-x="999"
   id="glyph92648"><path
     d="M0 327.995l55.9981 112.01 791.995 16.0015 -39.9966 -112.01 -807.996 -16.0015z"
     id="path92646" /></glyph>
   <glyph
   unicode="("
   horiz-adv-x="311"
   id="glyph92652"><path
     d="M242.006 830.999c-83.3381,-60.661 -143.673,-120.67 -181.005,-179.999 -37.332,-59.3288 -58.6626,-115.667 -64.0059,-169.001 -5.3291,-53.3335 -7.99365,-89.6735 -7.99365,-109.006 0,-83.3239 19.8282,-158.158 59.4988,-224.488 39.6706,-66.3445 104.173,-132.179 193.506,-197.503 -12.0046,41.3289 -35.8439,104.499 -71.5035,189.495 -35.6738,84.9963 -53.5036,162.835 -53.5036,233.502 0,93.3301 8.50388,172.005 25.4975,235.997 17.0078,64.0059 50.1729,137.664 99.5096,221.002z"
     id="path92650" /></glyph>
   <glyph
   unicode=" "
   horiz-adv-x="499"
   id="glyph92654" />
   <glyph
   unicode="I"
   horiz-adv-x="568"
   id="glyph92658"><path
     d="M35.9998 43.9934l120.004 4.011 19.9983 11.9905c1.33228,1.99841 2.66455,5.00312 3.99683,8.99994 1.33228,4.011 1.99841,10.9984 1.99841,21.0046l0 564.006c0,57.9965 -26.1636,90.8215 -78.4908,98.4891 -52.3414,7.66767 -85.5065,15.5054 -99.5096,23.4991l0 47.0123 28.0061 0c1.33228,-0.666138 11.3243,-5.66926 29.9904,-15.0094 18.6802,-9.32593 40.0108,-14.0031 64.0059,-14.0031l329.001 0 0 -36.9919c-44.6737,0 -77.6688,-3.84092 -98.9994,-11.5086 -21.3306,-7.6535 -32.0029,-25.4975 -32.0029,-53.4894l0 -509c0,-96.0088 22.8329,-145.998 68.4988,-150.009 45.6659,-3.99683 73.8421,-7.49759 84.5003,-10.4881 10.6724,-3.00471 22.3369,-5.83933 35.0077,-8.50388 5.99524,-2.66455 8.99994,-12.0046 8.99994,-28.0061 0,-9.32593 -4.50706,-17.8298 -13.507,-25.4975 -8.99994,-7.66767 -17.1637,-11.4944 -24.4912,-11.4944 -12.6708,0 -23.6691,5.65508 -33.0092,16.9936 -9.32593,11.3385 -17.3337,21.3306 -23.9951,30.0045l-393.999 0 3.99683 47.9902z"
     id="path92656" /></glyph>
   <glyph
   unicode="M"
   horiz-adv-x="935"
   id="glyph92662"><path
     d="M0 800.003l180.169 0c9.32593,-1.33228 18.666,-2.50865 27.9919,-3.50077 9.3401,-1.00629 18.666,-3.84092 27.666,-8.50388 8.99994,-4.66296 32.6691,-49.3367 71.0074,-133.993 38.3383,-84.8404 68.4988,-149.172 90.1695,-193.166 21.6566,-44.0076 42.8312,-74.0121 63.4957,-89.9994l162.495 343.16c-11.9905,15.3353 -20.4944,25.0014 -25.4975,28.9982 -5.00312,3.99683 -15.8314,10.0062 -32.499,17.9999l0 28.0061 305.006 0 0 -28.0061c-19.3322,-14.0031 -33.8313,-25.9935 -43.4974,-35.9998 -9.68025,-9.99206 -14.5133,-23.329 -14.5133,-39.9966l0 -570.001c0,-19.9983 6.17949,-39.1746 18.5101,-57.5004 12.3306,-18.34 31.8329,-30.8408 58.4925,-37.5021l-4.98894 -27.9919 -290.011 -1.00629 0 28.9982c27.34,14.0031 46.6721,29.5085 58.0107,46.5021 11.3243,16.9936 16.9936,39.5005 16.9936,67.5067l0 493.991 -17.9999 0 -228.173 -504.337 -17.9999 0.340155 -248.824 503.997 -17.9999 0 0 -532.995c-3.99683,-25.3416 -9.51018,-59.839 -16.4975,-103.506 -7.00153,-43.6674 -19.5022,-90.8356 -37.5021,-141.49 -17.9999,-50.669 -41.343,-86.0026 -70.0011,-106.001l0 28.9982c22.6628,55.3319 39.3305,115.667 50.0028,180.991 10.6582,65.3382 15.9873,128.338 15.9873,189.013l0 436.986c0,75.3444 -8.65979,122.669 -25.9935,142.001 -10.6724,9.3401 -19.3322,17.1778 -25.9935,23.4991 -6.67555,6.33539 -11.8346,14.6692 -15.5054,25.0014 -3.67084,10.3322 -7.83775,20.1684 -12.5007,29.5085z"
     id="path92660" /></glyph>
   <glyph
   unicode="X"
   horiz-adv-x="762"
   id="glyph92666"><path
     d="M8.99994 694.002c42.6611,39.9966 73.3318,67.3366 91.9978,81.9916 18.666,14.6692 33.0092,23.6691 43.0013,26.9998 38.6643,0 77.0027,-19.9983 115.001,-59.9949 32.0029,-47.3383 64.0059,-94.3364 95.9947,-140.994 16.6676,18.666 37.332,58.4925 62.0075,119.494 24.6613,61.0012 48.9965,91.5018 72.9917,91.5018 15.3353,0 31.677,-7.99365 49.0107,-23.9951 17.3337,-16.0015 35.9998,-24.0093 55.9981,-24.0093 16.6676,0 32.1589,4.1669 46.5021,12.5007 14.329,8.33381 27.4959,20.1684 39.5005,35.5037l29.9904 0c-12.6566,-65.3382 -35.9998,-109.998 -70.0011,-133.993 -34.0014,-24.0093 -70.9933,-35.9998 -110.99,-35.9998 -14.0031,0 -25.1715,0.822042 -33.5053,2.49447 -8.33381,1.65826 -14.159,3.16061 -17.5038,4.49289 -8.65979,0 -25.0014,-23.825 -48.9965,-71.4893 -23.9951,-47.6784 -35.9998,-78.1649 -35.9998,-91.5018 13.3369,-34.0014 26.6738,-68.0027 39.9966,-102.004 35.3336,-77.9948 77.0027,-146.168 125.007,-204.504 47.9902,-58.3225 101.664,-87.4908 160.993,-87.4908l0 -30.0045 -133.993 -95.9947c-89.9994,61.3272 -145.672,104.328 -167.002,128.99 -21.3306,24.6754 -36.4958,54.1697 -45.4958,88.5113 -8.99994,34.3273 -28.1762,71.1633 -57.5004,110.494 -26.0077,-54.6658 -50.0028,-105.505 -71.9995,-152.503 -22.0109,-46.9981 -45.6659,-80.6593 -71.0074,-100.998 -25.3274,-20.3385 -73.6578,-45.1698 -144.991,-74.494l-57.0044 0 0 29.9904c61.3272,14.6692 115.001,52.0012 160.993,112.01 46.006,59.9949 83.6782,125.659 113.002,196.992 10.6724,31.3368 21.6707,62.6736 33.0092,93.9963 -11.3385,24.0093 -24.0093,50.839 -38.0124,80.5034 -13.9889,29.6644 -26.6597,55.3319 -37.9982,77.0027 -11.3243,21.6707 -19.8282,37.9982 -25.4975,48.9965 -5.66926,10.9984 -13.3369,21.8408 -23.003,32.499 -9.66608,10.6724 -18.4959,19.5022 -26.4896,26.5038 -8.00782,7.00153 -17.5038,12.8267 -28.5022,17.5038 -10.9984,4.66296 -21.0046,7.66767 -30.0045,8.99994 -8.99994,1.33228 -18.4959,1.99841 -28.5022,1.99841l-30.9967 0z"
     id="path92664" /></glyph>
   <glyph
   unicode="V"
   horiz-adv-x="784"
   id="glyph92670"><path
     d="M748.994 818.995c-19.9983,-56.6642 -39.5005,-110.168 -58.4925,-160.497 -19.0062,-50.3288 -37.332,-98.8293 -55.006,-145.501 -17.6597,-46.658 -42.6611,-116.333 -74.9901,-208.997 -32.3431,-92.664 -57.3445,-162.495 -75.0043,-209.493 -17.6739,-47.0123 -31.8329,-78.3349 -42.5052,-94.0104 -10.6582,-15.6613 -23.329,-23.4991 -37.9982,-23.4991 -18.666,0 -44.8296,49.3367 -78.4908,148.01 -33.6754,98.6592 -69.335,202.988 -107.007,313 -37.6722,109.998 -69.335,178.822 -95.0026,206.488 -25.6676,27.666 -47.1682,41.499 -64.502,41.499 -17.3337,0 -27.9919,-0.99212 -31.9888,-2.99053 -6.67555,-5.34327 -15.3353,-10.9984 -26.0077,-17.0078l0 39.0045c3.99683,32.6691 18.666,59.839 44.0076,81.4955 25.3274,21.6707 52.3272,32.499 80.9995,32.499 32.6549,0 65.324,-19.3322 97.9931,-57.9965 19.3322,-25.3274 39.0045,-50.3288 59.0028,-75.0043 9.99206,7.34169 25.8376,24.6754 47.4942,52.0012 21.6707,27.34 39.5005,54.3398 53.5036,80.9995l28.9982 0c19.9983,-17.3337 47.8343,-32.6549 83.5081,-45.9918 35.6596,-13.3369 65.4941,-19.9983 89.4892,-19.9983 8.67396,2.66455 23.3432,8.16373 44.0076,16.4975 20.6644,8.33381 41.0029,24.8313 61.0012,49.4926l56.9902 0zm-152.999 -199.997c-67.9885,0 -120.33,4.66296 -156.996,14.0031 -27.3258,10.6724 -54.6658,21.6707 -82.0058,32.9951 -4.66296,0 -10.3322,-2.16849 -16.9936,-6.4913 -6.66138,-4.33698 -16.9936,-11.8346 -30.9967,-22.5069l143.999 -392.001 142.993 374.001z"
     id="path92668" /></glyph>
   <glyph
   unicode="c"
   horiz-adv-x="408"
   id="glyph92674"><path
     d="M366.999 143.007c-25.3274,-50.0028 -47.6643,-87.8451 -66.9964,-113.513 -19.3322,-25.6676 -57.0044,-38.4942 -113.002,-38.4942 -50.0028,0 -93.5002,19.5022 -130.506,58.5067 -36.9919,38.9903 -55.4878,78.4908 -55.4878,118.487l0 223c0,12.6708 11.3243,25.6676 33.9872,39.0045 22.677,13.3369 58.5067,36.4958 107.503,69.5051 48.9965,32.9951 76.1664,49.4926 81.5097,49.4926 25.9935,-17.3337 53.1634,-35.1636 81.4955,-53.5036 28.3321,-18.3259 47.1682,-32.1589 56.4941,-41.499 -2.66455,-7.32751 -14.159,-24.3211 -34.4974,-50.995 -20.3385,-26.6597 -32.499,-39.9966 -36.4958,-39.9966 -4.66296,0 -25.3416,14.159 -62.0075,42.4911 -36.6659,28.3463 -63.6657,42.5052 -80.9995,42.5052 -5.99524,0 -12.3306,-3.67084 -18.992,-10.9984 -6.67555,-7.32751 -10.0062,-14.6692 -10.0062,-21.9967l0 -210.003c0,-23.329 10.0062,-44.9997 30.0045,-64.998 19.9983,-19.9983 44.9997,-30.0045 75.0043,-30.0045 21.3306,0 44.4895,5.83933 69.4909,17.5038 25.0014,11.6645 44.8296,25.1715 59.4988,40.4927l14.0031 0 0 -24.9872z"
     id="path92672" /></glyph>
   <glyph
   unicode="n"
   horiz-adv-x="582"
   id="glyph92678"><path
     d="M521.997 7.00153c-7.32751,-3.33069 -17.6597,-5.00312 -30.9967,-5.00312 -5.3291,0 -20.4944,0.836215 -45.4958,2.50865 -25.0014,1.65826 -42.8312,2.49447 -53.5036,2.49447l0 320.993c0,39.3446 -5.99524,66.6704 -17.9999,82.0058 -12.0046,15.3353 -34.3273,23.003 -66.9964,23.003 -21.3447,0 -43.3415,-4.33698 -66.0043,-12.9968 -22.6628,-8.67396 -34.0014,-18.6802 -34.0014,-30.0045l0 -392.001 -120.996 0 0 397.004c0,14.655 -7.66767,26.9998 -23.003,36.9919 -15.3353,10.0062 -37.9982,20.3385 -68.0027,30.9967l0 14.0031 109.998 80.9995c35.9998,-16.0015 62.0075,-32.3289 78.009,-48.9965 10.6582,-15.3353 21.6566,-30.6707 32.9951,-46.006l147.996 100.006c59.3429,-16.0015 100.502,-34.3273 123.505,-55.006 23.003,-20.6644 34.4974,-56.3241 34.4974,-106.993l0 -393.999z"
     id="path92676" /></glyph>
   <glyph
   unicode="o"
   horiz-adv-x="512"
   id="glyph92682"><path
     d="M474.999 244.997c0,-52.0012 -18.17,-97.001 -54.4957,-134.999 -36.3399,-37.9982 -76.1664,-68.0027 -119.508,-89.9994 -43.3273,-21.9967 -67.9885,-32.9951 -73.998,-32.9951 -49.3367,0 -98.3332,33.8313 -147.004,101.494 -48.6564,67.6626 -72.9917,135.835 -72.9917,204.504 0,55.3319 18.8361,102.67 56.4941,142.001 37.6722,39.3305 78.831,70.0011 123.505,91.9978 44.6596,21.9967 70.3271,32.9951 77.0027,32.9951 44.6596,0 90.9916,-31.6628 138.996,-94.9884 48.0044,-63.3398 71.9995,-136.672 71.9995,-220.01zm-71.9995 -28.9982c0,41.3289 -21.0046,85.8325 -62.9996,133.497 -41.995,47.6643 -92.664,71.5035 -151.993,71.5035 -27.34,0 -52.5115,-8.82987 -75.5003,-26.5038 -23.003,-17.6597 -34.5116,-39.1604 -34.5116,-64.502 0,-37.9982 21.8408,-80.8294 65.5082,-128.494 43.6674,-47.6643 92.1679,-71.5035 145.501,-71.5035 35.3336,0 63.1555,6.33539 83.494,19.0062 20.3385,12.6708 30.5006,34.9935 30.5006,66.9964z"
     id="path92680" /></glyph>
   <glyph
   unicode="k"
   horiz-adv-x="543"
   id="glyph92686"><path
     d="M498.002 -3.99683l-134.007 0c0,59.9949 -14.4991,115.157 -43.4974,165.5 -28.9982,50.3288 -69.1649,75.5003 -120.5,75.5003 -11.9905,0 -19.9983,-3.33069 -23.9951,-10.0062 -3.99683,-6.66138 -5.99524,-17.9999 -5.99524,-34.0014 0,-7.99365 0,-22.3227 0,-43.0013 0,-20.6644 0,-33.6612 0,-38.9903l0 -115.001 -118.006 0 0 615.001c0,11.9905 -5.66926,27.9919 -17.0078,47.9902 -11.3243,20.0125 -23.329,39.0045 -35.9998,57.0044 0,3.33069 22.677,17.8298 68.0027,43.4974 45.3399,25.6676 80.3334,43.4974 105.009,53.5036 1.33228,-2.66455 4.66296,-2.66455 9.99206,0 -3.16061,-14.0031 -5.99524,-28.5022 -8.33381,-43.4974 -2.49447,-14.9952 -3.65667,-26.1636 -3.65667,-33.5053l0 -277.992c17.4897,-2.67872 43.9934,13.3228 79.4971,47.9902 35.4895,34.6675 57.3303,52.0012 65.4941,52.0012 35.5037,0 71.8295,-20.9904 109.176,-62.9996 37.162,-41.995 55.828,-91.3317 55.828,-147.996 0,-16.6676 -15.5054,-30.8408 -46.5021,-42.5052 -30.9967,-11.6645 -49.4926,-19.8282 -55.502,-24.4912 40.6627,-46.6721 71.0074,-96.0088 91.0057,-148.01 15.3353,-49.9887 25.0014,-80.9995 28.9982,-92.99l0 -43.0013zm-154.005 374.993c0,12.0046 -7.32751,25.3416 -22.1668,40.0108 -14.6692,14.655 -31.1667,21.9967 -49.3225,21.9967 -23.3432,0 -45.3399,-7.49759 -65.8342,-22.5069 -20.5085,-14.9952 -30.6707,-37.8281 -30.6707,-68.4988 0,-12.0046 0,-21.3306 0,-27.9919 0,-8.00782 0.836215,-14.1731 2.49447,-18.5101 1.67243,-4.32281 5.83933,-6.4913 12.5007,-6.4913 48.6706,0 83.3381,8.99994 104.002,26.9998 20.6644,17.9999 37.0061,36.3258 48.9965,54.9918z"
     id="path92684" /></glyph>
   <glyph
   unicode="i"
   horiz-adv-x="329"
   id="glyph92690"><path
     d="M235.005 780.005c0,-7.34169 0,-14.3432 0,-21.0046 0,-6.66138 0,-12.6708 0,-17.9999 0,-16.0015 -7.83775,-26.9998 -23.6691,-32.9951 -41.499,-12.0046 -86.3286,-25.3416 -134.333,-40.0108 -1.33228,5.34327 -1.99841,9.3401 -1.99841,12.0046 0,8.67396 0,16.0015 0,21.9967 0,22.677 13.3228,41.343 39.9966,55.9981 26.6597,14.6692 60.661,33.3352 102.16,56.0122l14.8393 0c1.99841,-8.00782 3.00471,-14.6692 3.00471,-20.0125 0,-5.99524 0,-9.66608 0,-10.9984 0,-1.33228 0,-2.32439 0,-2.99053zm71.9995 -724.999c-5.34327,-4.67714 -25.4975,-17.1778 -60.5051,-37.5021 -34.9935,-20.3385 -55.1619,-30.5006 -60.5051,-30.5006 -19.9983,16.0015 -40.1667,33.1651 -60.491,51.491 -20.3385,18.34 -30.5006,33.5053 -30.5006,45.5099l0 298.997c0,23.9951 -12.9968,43.3273 -39.0045,57.9965 -25.9935,14.6692 -39.0045,24.6754 -39.0045,30.0045 18.666,17.9999 37.8423,35.9998 57.5004,53.9997 19.6723,17.9999 32.499,26.9998 38.5084,26.9998 23.9951,-16.0015 47.6643,-34.8376 70.9933,-56.5083 23.3432,-21.6566 35.0077,-46.1619 35.0077,-73.4877l0 -179.007c0,-59.9949 4.49289,-102.33 13.4928,-127.005 8.99994,-24.6613 33.8313,-38.6643 74.5082,-41.995l0 -18.992z"
     id="path92688" /></glyph>
   <glyph
   unicode="m"
   horiz-adv-x="881"
   id="glyph92694"><path
     d="M818.995 -5.00312l-118.998 0 0 211.01c0,13.9889 0,27.8219 0,41.499 0,13.6629 0,26.8298 0,39.5005 0,49.3225 -6.16532,84.6562 -18.4959,106.001 -12.3306,21.3306 -39.8407,31.9888 -82.5018,31.9888 -38.6643,0 -64.502,-5.3291 -77.4987,-16.0015 -12.9968,-10.6582 -19.5022,-28.3321 -19.5022,-52.9934 0,-14.0031 1.1622,-33.8313 3.50077,-59.4988 2.33857,-25.6676 3.50077,-41.8391 3.50077,-48.5005l0 -253.005 -124.993 0 0 359.006c0,22.6628 -9.83616,41.0029 -29.5085,54.9918 -19.6581,14.0031 -42.1651,21.0046 -67.4925,21.0046 -3.34486,0 -18.666,-3.16061 -46.006,-9.496 -27.34,-6.33539 -43.6674,-11.1684 -48.9965,-14.4991l0 -411.007 -118.998 0 0 339.007c0,46.658 -5.49918,78.3349 -16.5117,95.0026 -10.9984,16.6534 -34.4974,24.9872 -70.4972,24.9872l0 10.0062c2.66455,10.0062 15.1653,23.6691 37.5021,41.0029 22.3369,17.3337 44.8296,34.0014 67.5067,50.0028 25.9935,0 50.6548,-16.6676 73.998,-50.0028 9.99206,-18.666 20.3243,-37.332 30.9967,-55.9981l10.9984 0c8.00782,8.65979 34.0014,28.488 77.9948,59.4988 44.0076,30.9967 69.009,46.5021 75.0043,46.5021 14.0031,0 35.5037,-6.17949 64.502,-18.5101 28.9982,-12.3306 46.5021,-22.4928 52.4973,-30.5006 6.00941,-7.99365 11.6645,-19.5022 17.0078,-34.4974 5.3291,-14.9952 11.9905,-22.4928 19.9983,-22.4928 1.99841,0 27.9919,17.6597 77.9948,52.9934 50.0028,35.3336 79.3412,53.0075 88.001,53.0075 31.3368,0 62.3335,-12.8409 93.0041,-38.5084 30.6707,-25.6676 45.9918,-68.4988 45.9918,-128.494l0 -393.007z"
     id="path92692" /></glyph>
   <glyph
   unicode="a"
   horiz-adv-x="573"
   id="glyph92698"><path
     d="M345.995 192.996l0 193.01c-16.6676,17.3337 -35.8297,31.6628 -57.5004,43.0013 -21.6566,11.3243 -41.499,21.3306 -59.4988,29.9904 -23.9951,0 -46.1619,-21.3306 -66.5004,-63.9917 -20.3243,-42.6753 -30.5006,-74.6783 -30.5006,-96.0088 0,-43.9934 14.6692,-81.6656 44.0076,-113.002 29.3242,-31.3226 56.6642,-46.9981 81.9916,-46.9981 29.3384,0 51.3351,6.33539 66.0043,19.0062 14.6692,12.6708 21.9967,24.3353 21.9967,34.9935zm134.007 -49.9887c0,-9.3401 9.496,-23.1731 28.5022,-41.5131 18.992,-18.3259 28.5022,-28.488 28.5022,-30.5006 0,-1.99841 -15.8456,-15.8314 -47.5084,-41.499 -31.6628,-25.6676 -49.1666,-38.4942 -52.4973,-38.4942 -17.9999,11.3385 -35.9998,25.3274 -53.9997,41.995 -17.9999,16.6676 -26.9998,37.9982 -26.9998,64.0059l-19.9983 7.99365c-10.0062,-9.32593 -35.1636,-29.3242 -75.5003,-59.9949 -40.3368,-30.6707 -62.1634,-46.006 -65.5082,-46.006 -38.6643,0 -79.8231,25.1715 -123.491,75.5003 -43.6674,50.343 -65.5082,104.513 -65.5082,162.509 0,42.6611 8.00782,79.6672 24.0093,110.99 16.0015,31.3368 33.4911,56.6784 52.4973,76.0105 18.992,19.3322 56.1682,51.165 111.5,95.4986 55.3319,44.3336 86.6687,66.5004 93.9963,66.5004l120.996 -68.0027c25.3416,-13.3369 50.669,-26.6597 76.0105,-39.9966 23.329,-14.6692 34.9935,-25.6676 34.9935,-33.0092 0,-7.32751 -7.32751,-17.6597 -21.9967,-30.9967 -14.6692,-13.3369 -21.9967,-27.3258 -21.9967,-41.995l0 -154.997c-1.99841,-12.6708 -3.84092,-25.6676 -5.49918,-39.0045 -1.67243,-13.3369 -2.50865,-23.003 -2.50865,-28.9982 0,-9.3401 1.33228,-14.0031 3.99683,-14.0031 1.34645,0 2.83463,1.00629 4.50706,3.00471 1.67243,1.99841 2.83463,3.65667 3.50077,5.00312z"
     id="path92696" /></glyph>
  </font><style
       type="text/css"
       id="style92701">
   <![CDATA[
    @font-face { font-family:"Kelmscott";src:url("#FontID0") format(svg)}
    .str5 {stroke:#BB9B69;stroke-width:0.75;stroke-linecap:square}
    .str2 {stroke:#0A0B0C;stroke-width:0.8}
    .str4 {stroke:#0A0B0C;stroke-width:0.8;stroke-linecap:round}
    .str1 {stroke:#0A0B0C}
    .str0 {stroke:#0A0B0C;stroke-width:1.2}
    .str3 {stroke:#0A0B0C;stroke-width:1.5}
    .fil2 {fill:none}
    .fil4 {fill:none;fill-rule:nonzero}
    .fil8 {fill:#1F1A17}
    .fil3 {fill:#EE0000}
    .fil0 {fill:#FB630C}
    .fil1 {fill:#FCFCEC}
    .fil7 {fill:#FFF5C8}
    .fil5 {fill:#EE0000;fill-rule:nonzero}
    .fil6 {fill:#DD137B;fill-opacity:0.011765}
    .fnt0 {font-weight:normal;font-size:7.0556;font-family:'Kelmscott'}
   ]]>
  </style><clipPath
       clipPathUnits="userSpaceOnUse"
       id="clipPath18561-1"><path
         id="path18563-0"
         style="fill:#ff0000;fill-opacity:1;fill-rule:nonzero;stroke:none;stroke-width:4.73131"
         d="m 425.11202,17.693515 c 17.7642,32.01179 25.34329,71.965232 28.33253,114.725145 0.60325,8.63517 -0.23183,17.31316 -0.22237,25.96678 3.30435,23.09274 4.47015,46.34105 2.38411,69.90702 -1.2467,29.51819 -2.73423,59.02929 -4.68495,88.50884 -0.14194,7.21383 -0.26968,14.42861 -0.40689,21.64207 -1.28455,57.73528 -2.45319,115.47104 -3.55747,173.21049 26.55497,-1.73512 53.08392,-4.20264 79.71129,-3.75179 11.18577,0.18925 6.66121,21.36273 9.66607,32.13967 0.0521,0.19304 0.0757,0.31605 0.12775,0.50824 61.53547,32.81857 84.87931,86.04302 91.39196,144.38827 3.3616,1.84606 7.05723,3.09442 10.31285,5.12865 27.43878,17.14344 51.75632,41.40127 71.81993,68.34535 35.12906,20.96871 70.56708,52.70622 103.18334,100.62356 0.81379,1.1947 1.62568,2.39087 2.43947,3.58548 23.66745,33.6757 42.44509,70.22941 53.0702,110.19709 10.63458,46.17802 14.11541,92.83022 9.33347,140.08202 -3.03845,49.7332 -6.92901,99.4204 -12.18881,148.9717 -2.89036,25.3968 -6.35794,52.7229 -14.04586,78.3994 40.62354,179.6623 -67.52579,275.528 -173.8389,239.9109 0.23657,4.3992 0.30281,6.1331 0.62832,11.9854 0.39743,7.1695 8.21356,20.104 1.58925,21.7345 8.00775,84.6273 -9.94475,65.9711 -172.37882,46.6478 56.06845,136.779 15.9029,233.4056 -57.256,261.71 2.73943,135.1084 5.27163,270.2234 6.61627,405.3498 0.32173,32.2975 -2.6642,61.3236 -8.21498,87.1874 H 2237.2958 v -593.8908 c -16.4039,-8.6624 -31.3842,-16.5717 -53.6522,-28.3232 -175.1631,-89.6004 -341.1343,-195.1562 -503.8944,-305.3084 -99.254,-69.2619 -194.1632,-144.8483 -279.9235,-230.3189 -41.1298,-44.7124 -80.2137,-92.8008 -104.9949,-148.7961 -5.1648,-11.6724 -8.9952,-23.8903 -13.4914,-35.8361 -22.1643,-75.09822 -32.3168,-131.52922 -3.8536,-209.4253 6.5949,-18.04571 19.0246,-33.39191 28.5359,-50.08541 11.6949,-13.0915 21.8909,-27.68742 35.0785,-39.2736 56.7275,-49.84052 126.2295,-70.30738 198.992,-81.44882 26.4191,-1.62152 29.6468,-4.83947 49.7989,-16.11604 38.2934,-21.73651 77.2842,-43.03045 118.4215,-59.00285 35.8795,-13.93065 48.0195,-16.52672 84.0272,-26.75222 33.9311,-7.94634 67.927,-16.86572 102.6658,-20.6995 9.4124,-1.03872 18.8755,-2.51517 28.3325,-2.8 3.1525,-0.0951 6.3049,-0.0629 9.4531,0.16655 22.848,1.66111 47.4135,0.15897 67.9483,10.31275 35.8558,17.72956 64.4429,47.39386 96.6684,71.08989 2.2842,6.90478 4.8836,13.74234 7.5592,20.56087 4.8316,-0.64753 9.772,-1.15619 14.8961,-1.45081 39.3129,-2.26067 80.5766,1.50281 117.4326,15.55235 V 17.693515 Z M 1584.0901,937.1949 c -0.1183,-0.062 -0.2129,-0.0544 -0.2508,0.12017 -0.1467,0.7995 -0.076,2.10208 0,3.44681 0.4258,-0.43291 0.8469,-0.87094 1.2756,-1.30295 v -0.25881 c 0.047,-0.56837 -0.6288,-1.75087 -1.0258,-2.00527 z m 227.0936,234.1262 c -1.3598,1.2433 -2.7598,2.4419 -4.0845,3.724 -0.4211,0.4083 -1.0443,1.1077 -1.5988,1.7003 1.4194,1.0571 2.8492,2.097 4.2696,3.1512 0.8109,-0.9491 1.5679,-1.9101 2.2175,-2.9571 -0.2886,-2.0386 -0.5242,-3.684 -0.8038,-5.6184 z m 426.105,269.0842 c -3.6975,2.0352 -7.4253,3.9947 -11.2094,5.8125 3.7268,2.0918 7.4745,4.15 11.2094,6.2283 z" /></clipPath><style
       type="text/css"
       id="style91645">
   <![CDATA[
    .str0 {stroke:#2B2A29;stroke-width:0.109566}
    .fil0 {fill:#E31E24}
    .fil5 {fill:black}
    .fil3 {fill:#E3E4E5}
    .fil1 {fill:#EAC102}
    .fil4 {fill:#ED1C24}
    .fil2 {fill:black;fill-rule:nonzero}
   ]]>
  </style><font
       id="FontID0-9"
       font-variant="normal"
       style="fill-rule:nonzero"
       font-style="normal"
       font-weight="400"
       horiz-origin-x="0"
       horiz-origin-y="0"
       horiz-adv-x="1024"
       vert-origin-x="512"
       vert-origin-y="768"
       vert-adv-y="1024">
	<font-face
   font-family="Kelmscott"
   id="font-face94011">
	</font-face>
   <missing-glyph
   id="missing-glyph94015"><path
     d="M0 0z"
     id="path94013" /></missing-glyph>
   <glyph
   unicode=")"
   horiz-adv-x="311"
   id="glyph94019"><path
     d="M271.997 426.994c1.99841,-21.9967 3.00471,-42.6611 3.00471,-61.9933 0,-83.3381 -19.8282,-158.172 -59.4988,-224.503 -39.6706,-66.3303 -104.173,-132.165 -193.506,-197.503 12.0046,41.343 35.8297,104.499 71.5035,189.509 35.6596,84.9963 53.5036,162.835 53.5036,233.488 0,93.3443 -8.50388,172.005 -25.4975,236.011 -17.0078,63.9917 -50.1729,137.664 -99.5096,221.002 83.3381,-60.6752 143.673,-120.67 181.005,-179.999 37.332,-59.3429 60.3351,-131.342 68.9948,-216.013z"
     id="path94017" /></glyph>
   <glyph
   unicode="."
   horiz-adv-x="327"
   id="glyph94023"><path
     d="M16.0015 127.998l111.996 -127.998 96.0088 127.998 -88.001 111.996 -120.004 -111.996z"
     id="path94021" /></glyph>
   <glyph
   unicode="-"
   horiz-adv-x="999"
   id="glyph94027"><path
     d="M0 327.995l55.9981 112.01 791.995 16.0015 -39.9966 -112.01 -807.996 -16.0015z"
     id="path94025" /></glyph>
   <glyph
   unicode="("
   horiz-adv-x="311"
   id="glyph94031"><path
     d="M242.006 830.999c-83.3381,-60.661 -143.673,-120.67 -181.005,-179.999 -37.332,-59.3288 -58.6626,-115.667 -64.0059,-169.001 -5.3291,-53.3335 -7.99365,-89.6735 -7.99365,-109.006 0,-83.3239 19.8282,-158.158 59.4988,-224.488 39.6706,-66.3445 104.173,-132.179 193.506,-197.503 -12.0046,41.3289 -35.8439,104.499 -71.5035,189.495 -35.6738,84.9963 -53.5036,162.835 -53.5036,233.502 0,93.3301 8.50388,172.005 25.4975,235.997 17.0078,64.0059 50.1729,137.664 99.5096,221.002z"
     id="path94029" /></glyph>
   <glyph
   unicode=" "
   horiz-adv-x="499"
   id="glyph94033" />
   <glyph
   unicode="I"
   horiz-adv-x="568"
   id="glyph94037"><path
     d="M35.9998 43.9934l120.004 4.011 19.9983 11.9905c1.33228,1.99841 2.66455,5.00312 3.99683,8.99994 1.33228,4.011 1.99841,10.9984 1.99841,21.0046l0 564.006c0,57.9965 -26.1636,90.8215 -78.4908,98.4891 -52.3414,7.66767 -85.5065,15.5054 -99.5096,23.4991l0 47.0123 28.0061 0c1.33228,-0.666138 11.3243,-5.66926 29.9904,-15.0094 18.6802,-9.32593 40.0108,-14.0031 64.0059,-14.0031l329.001 0 0 -36.9919c-44.6737,0 -77.6688,-3.84092 -98.9994,-11.5086 -21.3306,-7.6535 -32.0029,-25.4975 -32.0029,-53.4894l0 -509c0,-96.0088 22.8329,-145.998 68.4988,-150.009 45.6659,-3.99683 73.8421,-7.49759 84.5003,-10.4881 10.6724,-3.00471 22.3369,-5.83933 35.0077,-8.50388 5.99524,-2.66455 8.99994,-12.0046 8.99994,-28.0061 0,-9.32593 -4.50706,-17.8298 -13.507,-25.4975 -8.99994,-7.66767 -17.1637,-11.4944 -24.4912,-11.4944 -12.6708,0 -23.6691,5.65508 -33.0092,16.9936 -9.32593,11.3385 -17.3337,21.3306 -23.9951,30.0045l-393.999 0 3.99683 47.9902z"
     id="path94035" /></glyph>
   <glyph
   unicode="M"
   horiz-adv-x="935"
   id="glyph94041"><path
     d="M0 800.003l180.169 0c9.32593,-1.33228 18.666,-2.50865 27.9919,-3.50077 9.3401,-1.00629 18.666,-3.84092 27.666,-8.50388 8.99994,-4.66296 32.6691,-49.3367 71.0074,-133.993 38.3383,-84.8404 68.4988,-149.172 90.1695,-193.166 21.6566,-44.0076 42.8312,-74.0121 63.4957,-89.9994l162.495 343.16c-11.9905,15.3353 -20.4944,25.0014 -25.4975,28.9982 -5.00312,3.99683 -15.8314,10.0062 -32.499,17.9999l0 28.0061 305.006 0 0 -28.0061c-19.3322,-14.0031 -33.8313,-25.9935 -43.4974,-35.9998 -9.68025,-9.99206 -14.5133,-23.329 -14.5133,-39.9966l0 -570.001c0,-19.9983 6.17949,-39.1746 18.5101,-57.5004 12.3306,-18.34 31.8329,-30.8408 58.4925,-37.5021l-4.98894 -27.9919 -290.011 -1.00629 0 28.9982c27.34,14.0031 46.6721,29.5085 58.0107,46.5021 11.3243,16.9936 16.9936,39.5005 16.9936,67.5067l0 493.991 -17.9999 0 -228.173 -504.337 -17.9999 0.340155 -248.824 503.997 -17.9999 0 0 -532.995c-3.99683,-25.3416 -9.51018,-59.839 -16.4975,-103.506 -7.00153,-43.6674 -19.5022,-90.8356 -37.5021,-141.49 -17.9999,-50.669 -41.343,-86.0026 -70.0011,-106.001l0 28.9982c22.6628,55.3319 39.3305,115.667 50.0028,180.991 10.6582,65.3382 15.9873,128.338 15.9873,189.013l0 436.986c0,75.3444 -8.65979,122.669 -25.9935,142.001 -10.6724,9.3401 -19.3322,17.1778 -25.9935,23.4991 -6.67555,6.33539 -11.8346,14.6692 -15.5054,25.0014 -3.67084,10.3322 -7.83775,20.1684 -12.5007,29.5085z"
     id="path94039" /></glyph>
   <glyph
   unicode="X"
   horiz-adv-x="762"
   id="glyph94045"><path
     d="M8.99994 694.002c42.6611,39.9966 73.3318,67.3366 91.9978,81.9916 18.666,14.6692 33.0092,23.6691 43.0013,26.9998 38.6643,0 77.0027,-19.9983 115.001,-59.9949 32.0029,-47.3383 64.0059,-94.3364 95.9947,-140.994 16.6676,18.666 37.332,58.4925 62.0075,119.494 24.6613,61.0012 48.9965,91.5018 72.9917,91.5018 15.3353,0 31.677,-7.99365 49.0107,-23.9951 17.3337,-16.0015 35.9998,-24.0093 55.9981,-24.0093 16.6676,0 32.1589,4.1669 46.5021,12.5007 14.329,8.33381 27.4959,20.1684 39.5005,35.5037l29.9904 0c-12.6566,-65.3382 -35.9998,-109.998 -70.0011,-133.993 -34.0014,-24.0093 -70.9933,-35.9998 -110.99,-35.9998 -14.0031,0 -25.1715,0.822042 -33.5053,2.49447 -8.33381,1.65826 -14.159,3.16061 -17.5038,4.49289 -8.65979,0 -25.0014,-23.825 -48.9965,-71.4893 -23.9951,-47.6784 -35.9998,-78.1649 -35.9998,-91.5018 13.3369,-34.0014 26.6738,-68.0027 39.9966,-102.004 35.3336,-77.9948 77.0027,-146.168 125.007,-204.504 47.9902,-58.3225 101.664,-87.4908 160.993,-87.4908l0 -30.0045 -133.993 -95.9947c-89.9994,61.3272 -145.672,104.328 -167.002,128.99 -21.3306,24.6754 -36.4958,54.1697 -45.4958,88.5113 -8.99994,34.3273 -28.1762,71.1633 -57.5004,110.494 -26.0077,-54.6658 -50.0028,-105.505 -71.9995,-152.503 -22.0109,-46.9981 -45.6659,-80.6593 -71.0074,-100.998 -25.3274,-20.3385 -73.6578,-45.1698 -144.991,-74.494l-57.0044 0 0 29.9904c61.3272,14.6692 115.001,52.0012 160.993,112.01 46.006,59.9949 83.6782,125.659 113.002,196.992 10.6724,31.3368 21.6707,62.6736 33.0092,93.9963 -11.3385,24.0093 -24.0093,50.839 -38.0124,80.5034 -13.9889,29.6644 -26.6597,55.3319 -37.9982,77.0027 -11.3243,21.6707 -19.8282,37.9982 -25.4975,48.9965 -5.66926,10.9984 -13.3369,21.8408 -23.003,32.499 -9.66608,10.6724 -18.4959,19.5022 -26.4896,26.5038 -8.00782,7.00153 -17.5038,12.8267 -28.5022,17.5038 -10.9984,4.66296 -21.0046,7.66767 -30.0045,8.99994 -8.99994,1.33228 -18.4959,1.99841 -28.5022,1.99841l-30.9967 0z"
     id="path94043" /></glyph>
   <glyph
   unicode="V"
   horiz-adv-x="784"
   id="glyph94049"><path
     d="M748.994 818.995c-19.9983,-56.6642 -39.5005,-110.168 -58.4925,-160.497 -19.0062,-50.3288 -37.332,-98.8293 -55.006,-145.501 -17.6597,-46.658 -42.6611,-116.333 -74.9901,-208.997 -32.3431,-92.664 -57.3445,-162.495 -75.0043,-209.493 -17.6739,-47.0123 -31.8329,-78.3349 -42.5052,-94.0104 -10.6582,-15.6613 -23.329,-23.4991 -37.9982,-23.4991 -18.666,0 -44.8296,49.3367 -78.4908,148.01 -33.6754,98.6592 -69.335,202.988 -107.007,313 -37.6722,109.998 -69.335,178.822 -95.0026,206.488 -25.6676,27.666 -47.1682,41.499 -64.502,41.499 -17.3337,0 -27.9919,-0.99212 -31.9888,-2.99053 -6.67555,-5.34327 -15.3353,-10.9984 -26.0077,-17.0078l0 39.0045c3.99683,32.6691 18.666,59.839 44.0076,81.4955 25.3274,21.6707 52.3272,32.499 80.9995,32.499 32.6549,0 65.324,-19.3322 97.9931,-57.9965 19.3322,-25.3274 39.0045,-50.3288 59.0028,-75.0043 9.99206,7.34169 25.8376,24.6754 47.4942,52.0012 21.6707,27.34 39.5005,54.3398 53.5036,80.9995l28.9982 0c19.9983,-17.3337 47.8343,-32.6549 83.5081,-45.9918 35.6596,-13.3369 65.4941,-19.9983 89.4892,-19.9983 8.67396,2.66455 23.3432,8.16373 44.0076,16.4975 20.6644,8.33381 41.0029,24.8313 61.0012,49.4926l56.9902 0zm-152.999 -199.997c-67.9885,0 -120.33,4.66296 -156.996,14.0031 -27.3258,10.6724 -54.6658,21.6707 -82.0058,32.9951 -4.66296,0 -10.3322,-2.16849 -16.9936,-6.4913 -6.66138,-4.33698 -16.9936,-11.8346 -30.9967,-22.5069l143.999 -392.001 142.993 374.001z"
     id="path94047" /></glyph>
   <glyph
   unicode="c"
   horiz-adv-x="408"
   id="glyph94053"><path
     d="M366.999 143.007c-25.3274,-50.0028 -47.6643,-87.8451 -66.9964,-113.513 -19.3322,-25.6676 -57.0044,-38.4942 -113.002,-38.4942 -50.0028,0 -93.5002,19.5022 -130.506,58.5067 -36.9919,38.9903 -55.4878,78.4908 -55.4878,118.487l0 223c0,12.6708 11.3243,25.6676 33.9872,39.0045 22.677,13.3369 58.5067,36.4958 107.503,69.5051 48.9965,32.9951 76.1664,49.4926 81.5097,49.4926 25.9935,-17.3337 53.1634,-35.1636 81.4955,-53.5036 28.3321,-18.3259 47.1682,-32.1589 56.4941,-41.499 -2.66455,-7.32751 -14.159,-24.3211 -34.4974,-50.995 -20.3385,-26.6597 -32.499,-39.9966 -36.4958,-39.9966 -4.66296,0 -25.3416,14.159 -62.0075,42.4911 -36.6659,28.3463 -63.6657,42.5052 -80.9995,42.5052 -5.99524,0 -12.3306,-3.67084 -18.992,-10.9984 -6.67555,-7.32751 -10.0062,-14.6692 -10.0062,-21.9967l0 -210.003c0,-23.329 10.0062,-44.9997 30.0045,-64.998 19.9983,-19.9983 44.9997,-30.0045 75.0043,-30.0045 21.3306,0 44.4895,5.83933 69.4909,17.5038 25.0014,11.6645 44.8296,25.1715 59.4988,40.4927l14.0031 0 0 -24.9872z"
     id="path94051" /></glyph>
   <glyph
   unicode="n"
   horiz-adv-x="582"
   id="glyph94057"><path
     d="M521.997 7.00153c-7.32751,-3.33069 -17.6597,-5.00312 -30.9967,-5.00312 -5.3291,0 -20.4944,0.836215 -45.4958,2.50865 -25.0014,1.65826 -42.8312,2.49447 -53.5036,2.49447l0 320.993c0,39.3446 -5.99524,66.6704 -17.9999,82.0058 -12.0046,15.3353 -34.3273,23.003 -66.9964,23.003 -21.3447,0 -43.3415,-4.33698 -66.0043,-12.9968 -22.6628,-8.67396 -34.0014,-18.6802 -34.0014,-30.0045l0 -392.001 -120.996 0 0 397.004c0,14.655 -7.66767,26.9998 -23.003,36.9919 -15.3353,10.0062 -37.9982,20.3385 -68.0027,30.9967l0 14.0031 109.998 80.9995c35.9998,-16.0015 62.0075,-32.3289 78.009,-48.9965 10.6582,-15.3353 21.6566,-30.6707 32.9951,-46.006l147.996 100.006c59.3429,-16.0015 100.502,-34.3273 123.505,-55.006 23.003,-20.6644 34.4974,-56.3241 34.4974,-106.993l0 -393.999z"
     id="path94055" /></glyph>
   <glyph
   unicode="o"
   horiz-adv-x="512"
   id="glyph94061"><path
     d="M474.999 244.997c0,-52.0012 -18.17,-97.001 -54.4957,-134.999 -36.3399,-37.9982 -76.1664,-68.0027 -119.508,-89.9994 -43.3273,-21.9967 -67.9885,-32.9951 -73.998,-32.9951 -49.3367,0 -98.3332,33.8313 -147.004,101.494 -48.6564,67.6626 -72.9917,135.835 -72.9917,204.504 0,55.3319 18.8361,102.67 56.4941,142.001 37.6722,39.3305 78.831,70.0011 123.505,91.9978 44.6596,21.9967 70.3271,32.9951 77.0027,32.9951 44.6596,0 90.9916,-31.6628 138.996,-94.9884 48.0044,-63.3398 71.9995,-136.672 71.9995,-220.01zm-71.9995 -28.9982c0,41.3289 -21.0046,85.8325 -62.9996,133.497 -41.995,47.6643 -92.664,71.5035 -151.993,71.5035 -27.34,0 -52.5115,-8.82987 -75.5003,-26.5038 -23.003,-17.6597 -34.5116,-39.1604 -34.5116,-64.502 0,-37.9982 21.8408,-80.8294 65.5082,-128.494 43.6674,-47.6643 92.1679,-71.5035 145.501,-71.5035 35.3336,0 63.1555,6.33539 83.494,19.0062 20.3385,12.6708 30.5006,34.9935 30.5006,66.9964z"
     id="path94059" /></glyph>
   <glyph
   unicode="k"
   horiz-adv-x="543"
   id="glyph94065"><path
     d="M498.002 -3.99683l-134.007 0c0,59.9949 -14.4991,115.157 -43.4974,165.5 -28.9982,50.3288 -69.1649,75.5003 -120.5,75.5003 -11.9905,0 -19.9983,-3.33069 -23.9951,-10.0062 -3.99683,-6.66138 -5.99524,-17.9999 -5.99524,-34.0014 0,-7.99365 0,-22.3227 0,-43.0013 0,-20.6644 0,-33.6612 0,-38.9903l0 -115.001 -118.006 0 0 615.001c0,11.9905 -5.66926,27.9919 -17.0078,47.9902 -11.3243,20.0125 -23.329,39.0045 -35.9998,57.0044 0,3.33069 22.677,17.8298 68.0027,43.4974 45.3399,25.6676 80.3334,43.4974 105.009,53.5036 1.33228,-2.66455 4.66296,-2.66455 9.99206,0 -3.16061,-14.0031 -5.99524,-28.5022 -8.33381,-43.4974 -2.49447,-14.9952 -3.65667,-26.1636 -3.65667,-33.5053l0 -277.992c17.4897,-2.67872 43.9934,13.3228 79.4971,47.9902 35.4895,34.6675 57.3303,52.0012 65.4941,52.0012 35.5037,0 71.8295,-20.9904 109.176,-62.9996 37.162,-41.995 55.828,-91.3317 55.828,-147.996 0,-16.6676 -15.5054,-30.8408 -46.5021,-42.5052 -30.9967,-11.6645 -49.4926,-19.8282 -55.502,-24.4912 40.6627,-46.6721 71.0074,-96.0088 91.0057,-148.01 15.3353,-49.9887 25.0014,-80.9995 28.9982,-92.99l0 -43.0013zm-154.005 374.993c0,12.0046 -7.32751,25.3416 -22.1668,40.0108 -14.6692,14.655 -31.1667,21.9967 -49.3225,21.9967 -23.3432,0 -45.3399,-7.49759 -65.8342,-22.5069 -20.5085,-14.9952 -30.6707,-37.8281 -30.6707,-68.4988 0,-12.0046 0,-21.3306 0,-27.9919 0,-8.00782 0.836215,-14.1731 2.49447,-18.5101 1.67243,-4.32281 5.83933,-6.4913 12.5007,-6.4913 48.6706,0 83.3381,8.99994 104.002,26.9998 20.6644,17.9999 37.0061,36.3258 48.9965,54.9918z"
     id="path94063" /></glyph>
   <glyph
   unicode="i"
   horiz-adv-x="329"
   id="glyph94069"><path
     d="M235.005 780.005c0,-7.34169 0,-14.3432 0,-21.0046 0,-6.66138 0,-12.6708 0,-17.9999 0,-16.0015 -7.83775,-26.9998 -23.6691,-32.9951 -41.499,-12.0046 -86.3286,-25.3416 -134.333,-40.0108 -1.33228,5.34327 -1.99841,9.3401 -1.99841,12.0046 0,8.67396 0,16.0015 0,21.9967 0,22.677 13.3228,41.343 39.9966,55.9981 26.6597,14.6692 60.661,33.3352 102.16,56.0122l14.8393 0c1.99841,-8.00782 3.00471,-14.6692 3.00471,-20.0125 0,-5.99524 0,-9.66608 0,-10.9984 0,-1.33228 0,-2.32439 0,-2.99053zm71.9995 -724.999c-5.34327,-4.67714 -25.4975,-17.1778 -60.5051,-37.5021 -34.9935,-20.3385 -55.1619,-30.5006 -60.5051,-30.5006 -19.9983,16.0015 -40.1667,33.1651 -60.491,51.491 -20.3385,18.34 -30.5006,33.5053 -30.5006,45.5099l0 298.997c0,23.9951 -12.9968,43.3273 -39.0045,57.9965 -25.9935,14.6692 -39.0045,24.6754 -39.0045,30.0045 18.666,17.9999 37.8423,35.9998 57.5004,53.9997 19.6723,17.9999 32.499,26.9998 38.5084,26.9998 23.9951,-16.0015 47.6643,-34.8376 70.9933,-56.5083 23.3432,-21.6566 35.0077,-46.1619 35.0077,-73.4877l0 -179.007c0,-59.9949 4.49289,-102.33 13.4928,-127.005 8.99994,-24.6613 33.8313,-38.6643 74.5082,-41.995l0 -18.992z"
     id="path94067" /></glyph>
   <glyph
   unicode="m"
   horiz-adv-x="881"
   id="glyph94073"><path
     d="M818.995 -5.00312l-118.998 0 0 211.01c0,13.9889 0,27.8219 0,41.499 0,13.6629 0,26.8298 0,39.5005 0,49.3225 -6.16532,84.6562 -18.4959,106.001 -12.3306,21.3306 -39.8407,31.9888 -82.5018,31.9888 -38.6643,0 -64.502,-5.3291 -77.4987,-16.0015 -12.9968,-10.6582 -19.5022,-28.3321 -19.5022,-52.9934 0,-14.0031 1.1622,-33.8313 3.50077,-59.4988 2.33857,-25.6676 3.50077,-41.8391 3.50077,-48.5005l0 -253.005 -124.993 0 0 359.006c0,22.6628 -9.83616,41.0029 -29.5085,54.9918 -19.6581,14.0031 -42.1651,21.0046 -67.4925,21.0046 -3.34486,0 -18.666,-3.16061 -46.006,-9.496 -27.34,-6.33539 -43.6674,-11.1684 -48.9965,-14.4991l0 -411.007 -118.998 0 0 339.007c0,46.658 -5.49918,78.3349 -16.5117,95.0026 -10.9984,16.6534 -34.4974,24.9872 -70.4972,24.9872l0 10.0062c2.66455,10.0062 15.1653,23.6691 37.5021,41.0029 22.3369,17.3337 44.8296,34.0014 67.5067,50.0028 25.9935,0 50.6548,-16.6676 73.998,-50.0028 9.99206,-18.666 20.3243,-37.332 30.9967,-55.9981l10.9984 0c8.00782,8.65979 34.0014,28.488 77.9948,59.4988 44.0076,30.9967 69.009,46.5021 75.0043,46.5021 14.0031,0 35.5037,-6.17949 64.502,-18.5101 28.9982,-12.3306 46.5021,-22.4928 52.4973,-30.5006 6.00941,-7.99365 11.6645,-19.5022 17.0078,-34.4974 5.3291,-14.9952 11.9905,-22.4928 19.9983,-22.4928 1.99841,0 27.9919,17.6597 77.9948,52.9934 50.0028,35.3336 79.3412,53.0075 88.001,53.0075 31.3368,0 62.3335,-12.8409 93.0041,-38.5084 30.6707,-25.6676 45.9918,-68.4988 45.9918,-128.494l0 -393.007z"
     id="path94071" /></glyph>
   <glyph
   unicode="a"
   horiz-adv-x="573"
   id="glyph94077"><path
     d="M345.995 192.996l0 193.01c-16.6676,17.3337 -35.8297,31.6628 -57.5004,43.0013 -21.6566,11.3243 -41.499,21.3306 -59.4988,29.9904 -23.9951,0 -46.1619,-21.3306 -66.5004,-63.9917 -20.3243,-42.6753 -30.5006,-74.6783 -30.5006,-96.0088 0,-43.9934 14.6692,-81.6656 44.0076,-113.002 29.3242,-31.3226 56.6642,-46.9981 81.9916,-46.9981 29.3384,0 51.3351,6.33539 66.0043,19.0062 14.6692,12.6708 21.9967,24.3353 21.9967,34.9935zm134.007 -49.9887c0,-9.3401 9.496,-23.1731 28.5022,-41.5131 18.992,-18.3259 28.5022,-28.488 28.5022,-30.5006 0,-1.99841 -15.8456,-15.8314 -47.5084,-41.499 -31.6628,-25.6676 -49.1666,-38.4942 -52.4973,-38.4942 -17.9999,11.3385 -35.9998,25.3274 -53.9997,41.995 -17.9999,16.6676 -26.9998,37.9982 -26.9998,64.0059l-19.9983 7.99365c-10.0062,-9.32593 -35.1636,-29.3242 -75.5003,-59.9949 -40.3368,-30.6707 -62.1634,-46.006 -65.5082,-46.006 -38.6643,0 -79.8231,25.1715 -123.491,75.5003 -43.6674,50.343 -65.5082,104.513 -65.5082,162.509 0,42.6611 8.00782,79.6672 24.0093,110.99 16.0015,31.3368 33.4911,56.6784 52.4973,76.0105 18.992,19.3322 56.1682,51.165 111.5,95.4986 55.3319,44.3336 86.6687,66.5004 93.9963,66.5004l120.996 -68.0027c25.3416,-13.3369 50.669,-26.6597 76.0105,-39.9966 23.329,-14.6692 34.9935,-25.6676 34.9935,-33.0092 0,-7.32751 -7.32751,-17.6597 -21.9967,-30.9967 -14.6692,-13.3369 -21.9967,-27.3258 -21.9967,-41.995l0 -154.997c-1.99841,-12.6708 -3.84092,-25.6676 -5.49918,-39.0045 -1.67243,-13.3369 -2.50865,-23.003 -2.50865,-28.9982 0,-9.3401 1.33228,-14.0031 3.99683,-14.0031 1.34645,0 2.83463,1.00629 4.50706,3.00471 1.67243,1.99841 2.83463,3.65667 3.50077,5.00312z"
     id="path94075" /></glyph>
  </font>
</defs>
</svg>
